<?xml version="1.0" standalone="no"?>
<!DOCTYPE svg PUBLIC "-//W3C//DTD SVG 1.1//EN" "http://www.w3.org/Graphics/SVG/1.1/DTD/svg11.dtd" >
<svg xmlns="http://www.w3.org/2000/svg">
  <metadata>Created by iconfont</metadata>
  <defs>
  <font id="iconfont" horiz-adv-x="1024">
    <font-face
      font-family="iconfont"
      font-weight="400"
      font-stretch="normal"
      units-per-em="1024"
      ascent="896"
      descent="-128"
    />
      <missing-glyph />
      
      <glyph glyph-name="bianzu1" unicode="&#59583;" d="M405.333333 362.666667a85.333333 85.333333 0 0 0 85.12-78.933334l0.213334-6.4V85.333333a85.333333 85.333333 0 0 0-78.933334-85.12L405.333333 0H213.333333a85.333333 85.333333 0 0 0-85.12 78.933333L128 85.333333v192a85.333333 85.333333 0 0 0 78.933333 85.12L213.333333 362.666667h192z m320 0V256h85.333334v106.666667a85.333333 85.333333 0 0 0 85.12-78.933334l0.213333-6.4V170.666667h-277.333333v-170.666667a85.333333 85.333333 0 0 0-85.12 78.933333L533.333333 85.333333v192a85.333333 85.333333 0 0 0 78.933334 85.12l6.4 0.213334H725.333333z m42.666667-277.333334v-85.333333h-85.333333v85.333333h85.333333z m128 0a85.333333 85.333333 0 0 0-85.333333-85.333333v85.333333h85.333333zM405.333333 277.333333H213.333333V85.333333h192v192z m-96-53.333333a42.666667 42.666667 0 1 0 0-85.333333 42.666667 42.666667 0 0 0 0 85.333333zM405.333333 768a85.333333 85.333333 0 0 0 85.12-78.933333L490.666667 682.666667v-192a85.333333 85.333333 0 0 0-78.933334-85.12l-6.4-0.213334H213.333333a85.333333 85.333333 0 0 0-85.12 78.933334L128 490.666667V682.666667a85.333333 85.333333 0 0 0 78.933333 85.12L213.333333 768h192zM810.666667 768a85.333333 85.333333 0 0 0 85.333333-85.333333v-192a85.333333 85.333333 0 0 0-85.333333-85.333334h-192a85.333333 85.333333 0 0 0-85.333334 85.333334V682.666667a85.333333 85.333333 0 0 0 85.333334 85.333333H810.666667zM405.333333 682.666667H213.333333v-192h192V682.666667zM810.666667 682.666667h-192v-192H810.666667V682.666667zM309.333333 629.333333a42.666667 42.666667 0 1 0 0-85.333333 42.666667 42.666667 0 0 0 0 85.333333z m405.333334 0a42.666667 42.666667 0 1 0 0-85.333333 42.666667 42.666667 0 0 0 0 85.333333z"  horiz-adv-x="1024" />
      
      <glyph glyph-name="a-bianzu2" unicode="&#59584;" d="M874.666667 746.666667A64 64 0 0 0 938.666667 682.666667v-490.666667a64 64 0 0 0-64-64h-217.002667l-107.946667-107.946667a53.333333 53.333333 0 0 0-75.434666 0L366.336 128H149.333333A64 64 0 0 0 85.333333 192V682.666667a64 64 0 0 0 64 64h725.333334zM298.666667 490.666667a64 64 0 1 1 0-128 64 64 0 0 1 0 128z m213.333333 0a64 64 0 1 1 0-128 64 64 0 0 1 0 128z m213.333333 0a64 64 0 1 1 0-128 64 64 0 0 1 0 128z"  horiz-adv-x="1024" />
      
      <glyph glyph-name="a-bianzu4" unicode="&#59585;" d="M810.666667 789.333333a128 128 0 0 0 128-128v-384a128 128 0 0 0-128-128h-256v-85.333333h213.333333a42.666667 42.666667 0 1 0 0-85.333333H256a42.666667 42.666667 0 1 0 0 85.333333h213.333333v85.333333H213.333333a128 128 0 0 0-128 128v384a128 128 0 0 0 128 128h597.333334zM682.666667 640a42.666667 42.666667 0 0 1-42.666667-42.666667v-256a42.666667 42.666667 0 1 1 85.333333 0V597.333333a42.666667 42.666667 0 0 1-42.666666 42.666667z m-170.666667-85.333333a42.666667 42.666667 0 0 1-42.666667-42.666667v-170.666667a42.666667 42.666667 0 1 1 85.333334 0V512a42.666667 42.666667 0 0 1-42.666667 42.666667z m-170.666667-85.333334a42.666667 42.666667 0 0 1-42.666666-42.666666v-85.333334a42.666667 42.666667 0 1 1 85.333333 0v85.333334a42.666667 42.666667 0 0 1-42.666667 42.666666z"  horiz-adv-x="1024" />
      
      <glyph glyph-name="a-bianzu3" unicode="&#59586;" d="M318.592 800.426667c64.085333-54.272 109.909333-194.474667 101.418667-228.266667-3.84-15.402667-19.925333-23.808-36.266667-32.341333-19.712-10.24-39.808-20.736-39.808-43.776 0-42.24 67.626667-118.357333 114.133333-164.864l0.554667-0.554667a23.04 23.04 0 0 0 0.554667-0.554667c46.506667-46.506667 122.581333-114.133333 164.864-114.133333 23.04 0 33.536 20.096 43.776 39.765333 8.533333 16.384 16.938667 32.469333 32.298666 36.309334 33.834667 8.490667 174.037333-37.333333 228.266667-101.418667 34.858667-41.216-21.546667-223.616-131.029333-232.533333-156.416-12.629333-338.176 135.296-456.533334 253.653333l-0.554666 0.554667-0.554667 0.554666c-118.357333 118.357333-266.282667 300.117333-253.610667 456.533334 8.874667 109.482667 191.274667 165.930667 232.490667 131.029333z"  horiz-adv-x="1024" />
      
      <glyph glyph-name="ex-reports-to" unicode="&#59582;" d="M295.68 705.493333a62.506667 62.506667 0 0 0 121.856 19.626667C418.901333 725.248 420.266667 725.333333 421.674667 725.333333h389.034666a42.666667 42.666667 0 0 0 38.357334-61.397333L804.821333 573.44a42.666667 42.666667 0 0 1 0-37.461333L849.066667 445.44A42.666667 42.666667 0 0 0 810.666667 384H420.693333v-256h102.656a64 64 0 0 0 0-128H234.666667a64 64 0 0 0 0 128h61.013333V705.493333z"  horiz-adv-x="1066" />
      
      <glyph glyph-name="ex-help-outlined" unicode="&#59579;" d="M512 810.666667C276.736 810.666667 85.333333 619.264 85.333333 384s191.402667-426.666667 426.666667-426.666667 426.666667 191.402667 426.666667 426.666667S747.264 810.666667 512 810.666667z m0-768c-188.202667 0-341.333333 153.173333-341.333333 341.333333 0 188.202667 153.130667 341.333333 341.333333 341.333333s341.333333-153.130667 341.333333-341.333333c0-188.16-153.130667-341.333333-341.333333-341.333333z m168.021333 457.258666c11.989333-68.266667-16.768-129.365333-80.938666-172.032-39.466667-26.24-45.738667-40.277333-46.592-42.837333a42.666667 42.666667 0 1 0-80.896 27.306667c12.970667 38.4 52.010667 67.84 80.213333 86.613333 53.077333 35.285333 46.336 73.642667 44.16 86.229333-5.888 33.536-34.56 62.208-68.138667 68.096a84.821333 84.821333 0 0 1-70.656-18.56A85.12 85.12 0 0 1 426.666667 469.376a42.666667 42.666667 0 1 0-85.333334 0c0 50.56 22.229333 98.218667 60.970667 130.730667a171.690667 171.690667 0 0 0 140.288 37.248c68.821333-12.117333 125.312-68.608 137.429333-137.386667zM554.666667 170.666667a42.666667 42.666667 0 1 0-85.333334 0 42.666667 42.666667 0 0 0 85.333334 0z"  horiz-adv-x="1024" />
      
      <glyph glyph-name="ex-reply" unicode="&#59580;" d="M320 362.666667a64 64 0 1 1 0 128 64 64 0 0 1 0-128zM576 426.666667a64 64 0 1 0-128 0 64 64 0 0 0 128 0zM704 362.666667a64 64 0 1 1 0 128 64 64 0 0 1 0-128zM149.333333 746.666667A64 64 0 0 1 85.333333 682.666667v-490.666667A64 64 0 0 1 149.333333 128h217.002667l107.946667-107.946667a53.333333 53.333333 0 0 1 75.434666 0l107.946667 107.946667H874.666667a64 64 0 0 1 64 64V682.666667a64 64 0 0 1-64 64h-725.333334zM170.666667 213.333333V661.333333h682.666666V213.333333h-204.501333a64 64 0 0 1-45.226667-18.773333L512 103.04l-91.562667 91.605333A64 64 0 0 1 375.168 213.333333H170.666667z"  horiz-adv-x="1024" />
      
      <glyph glyph-name="ex-telephone" unicode="&#59581;" d="M472.917333 572.16c0.64-8.192 0.853333-18.816-1.792-29.226667-4.864-19.626667-17.194667-32.341333-27.306666-40.192-9.002667-6.997333-19.328-12.373333-25.941334-15.786666l-1.066666-0.597334a216.661333 216.661333 0 0 1-11.434667-6.229333c0.810667-2.218667 2.048-5.248 4.096-9.173333 4.821333-9.386667 12.16-20.693333 21.546667-33.152a721.493333 721.493333 0 0 1 63.146666-71.082667l0.469334-0.512 0.512-0.469333a721.493333 721.493333 0 0 1 71.082666-63.146667c12.458667-9.386667 23.722667-16.725333 33.152-21.546667 3.882667-2.005333 6.954667-3.285333 9.173334-4.096l0.341333 0.597334c1.706667 2.901333 3.456 6.186667 5.888 10.837333l0.554667 1.066667c3.413333 6.613333 8.832 16.938667 15.786666 25.941333 7.850667 10.112 20.608 22.442667 40.192 27.306667 10.410667 2.645333 21.077333 2.432 29.269334 1.792a213.333333 213.333333 0 0 0 28.288-4.437334c19.498667-4.266667 41.856-11.264 64.426666-20.266666 43.52-17.365333 95.061333-45.269333 126.293334-82.133334 10.496-12.416 15.232-27.136 17.408-39.466666 2.218667-12.714667 2.346667-26.154667 1.152-39.168a262.058667 262.058667 0 0 0-22.528-81.962667c-23.125333-51.2-70.144-112.682667-143.061334-118.613333-84.053333-6.826667-169.813333 29.44-244.309333 76.288-75.52 47.488-145.536 109.824-199.893333 164.181333l-0.426667 0.426667-0.213333 0.213333-0.384 0.384C272.981333 254.293333 210.645333 324.266667 163.157333 399.872 116.266667 474.368 80.042667 560.085333 86.869333 644.138667c5.930667 72.96 67.413333 119.893333 118.613334 143.061333a262.186667 262.186667 0 0 0 81.962666 22.528c13.013333 1.194667 26.453333 1.109333 39.168-1.152 12.373333-2.176 27.008-6.912 39.466667-17.450667 36.864-31.146667 64.725333-82.730667 82.133333-126.293333 9.002667-22.528 16-44.885333 20.266667-64.426667 2.133333-9.685333 3.712-19.285333 4.437333-28.202666z m-85.290666-4.565333a142.250667 142.250667 0 0 1-2.517334 14.592 336.853333 336.853333 0 0 1-16.128 51.029333c-15.232 38.058667-35.925333 72.96-56.106666 91.093333a65.706667 65.706667 0 0 1-17.706667 0.426667c-15.36-1.408-34.986667-6.442667-54.570667-15.274667-42.069333-19.029333-66.602667-46.634667-68.693333-72.192-4.565333-56.576 20.053333-122.965333 63.445333-192 42.794667-67.968 100.266667-132.906667 152.32-185.002666l0.426667-0.426667 0.085333-0.085333 0.085334-0.085334 0.426666-0.426666c52.053333-52.053333 117.034667-109.525333 185.002667-152.32 69.034667-43.392 135.381333-68.010667 192-63.402667 25.514667 2.048 53.162667 26.581333 72.149333 68.693333 8.832 19.541333 13.909333 39.125333 15.317334 54.570667 0.682667 7.68 0.384 13.226667-0.213334 16.597333l-0.213333 1.066667c-18.133333 20.224-53.034667 40.874667-91.136 56.106667a337.024 337.024 0 0 1-50.986667 16.170666 141.824 141.824 0 0 1-14.592 2.517334l-0.597333-1.024c-1.450667-2.56-2.986667-5.461333-4.949333-9.258667l-0.725334-1.365333c-4.096-7.893333-11.008-21.162667-20.906666-32.085334a73.685333 73.685333 0 0 0-55.594667-25.258666c-19.626667 0-38.229333 7.381333-52.778667 14.848a320.512 320.512 0 0 0-45.653333 29.397333 804.949333 804.949333 0 0 0-79.957333 70.826667l-0.554667 0.554666-0.554667 0.554667a805.461333 805.461333 0 0 0-70.826666 80 320.853333 320.853333 0 0 0-29.44 45.653333c-7.424 14.506667-14.848 33.152-14.848 52.736 0 25.173333 11.861333 43.52 25.258666 55.637334 10.922667 9.898667 24.234667 16.768 32.085334 20.906666l1.365333 0.682667a261.632 261.632 0 0 1 10.282667 5.546667z"  horiz-adv-x="1024" />
      
      <glyph glyph-name="ex-service" unicode="&#59578;" d="M512 810.666667a298.666667 298.666667 0 0 1-298.666667-298.666667 128 128 0 0 1-128-128v-85.333333a128 128 0 0 1 128-128h37.802667C277.376 170.666667 298.666667 191.957333 298.666667 218.197333V512a213.333333 213.333333 0 0 0 426.666666 0v-213.333333a213.418667 213.418667 0 0 0-146.688-202.709334 85.333333 85.333333 0 1 1 12.458667-85.333333A299.392 299.392 0 0 1 781.909333 170.666667H810.666667a128 128 0 0 1 128 128v85.333333a128 128 0 0 1-128 128 298.666667 298.666667 0 0 1-298.666667 298.666667zM170.666667 384a42.666667 42.666667 0 0 0 42.666666 42.666667v-170.666667a42.666667 42.666667 0 0 0-42.666666 42.666667v85.333333z m640-128h-2.986667c1.962667 13.952 2.986667 28.16 2.986667 42.666667v128a42.666667 42.666667 0 0 0 42.666666-42.666667v-85.333333a42.666667 42.666667 0 0 0-42.666666-42.666667z"  horiz-adv-x="1024" />
      
      <glyph glyph-name="yidong" unicode="&#59577;" d="M530.773333 872.675556a23.722667 23.722667 0 0 1-37.432889 0L370.858667 715.150222a23.722667 23.722667 0 0 1 18.773333-38.229333h73.386667v-244.167111H219.136v-97.621334H463.075556v-244.167111H389.575111a23.722667 23.722667 0 0 1-18.716444-38.229333l122.481777-157.411556c9.443556-12.174222 27.875556-12.174222 37.376 0l122.424889 157.411556a23.722667 23.722667 0 0 1-18.659555 38.229333H560.696889V335.189333h244.167111v-73.614222c0-19.740444 22.698667-30.833778 38.229333-18.716444l157.411556 122.424889a23.722667 23.722667 0 0 1 0 37.432888L843.093333 525.084444a23.722667 23.722667 0 0 1-38.229333-18.716444v-73.614222H560.696889V676.977778h73.784889a23.722667 23.722667 0 0 1 18.716444 38.229333L530.716444 872.675556zM23.324444 402.659556a23.722667 23.722667 0 0 1 0-37.432889l157.468445-122.424889a23.722667 23.722667 0 0 1 38.229333 18.716444V506.424889a23.722667 23.722667 0 0 1-38.229333 18.716444L23.381333 402.716444z"  horiz-adv-x="1024" />
      
      <glyph glyph-name="gongyi" unicode="&#59576;" d="M1192.080632 579.276996l-1.449338 15.516443h-0.426276a321.412039 321.412039 0 0 1-34.613604 105.801682l-0.085256 0.170511A370.604279 370.604279 0 0 1 1057.121678 816.71268a361.311464 361.311464 0 0 1-135.129465 70.250271h-0.17051A270.003164 270.003164 0 0 1 807.750268 892.248772a254.060445 254.060445 0 0 1-105.716427-43.139123L701.692821 848.853884l-96.338357-75.024561C569.121012 806.482058 530.329903 836.321372 489.577926 863.176755L488.384353 863.944051 487.020271 864.455582A354.150029 354.150029 0 0 1 332.537879 895.317959 317.660811 317.660811 0 0 1 206.019188 867.013238L205.763423 867.013238a333.688785 333.688785 0 0 1-124.472567-100.771626C14.536048 680.474898-11.381528 589.081342 4.475936 494.6186v-0.255766c11.765215-63.088835 38.279577-122.511698 77.496961-173.750062 44.673716-60.445925 317.831321-318.513363 400.528849-396.180835l2.216635-2.131379 2.046124-1.705104c22.251603-17.733078 47.742902-31.118142 75.195071-39.387894 17.733078-5.371077 36.148197-8.099242 54.648572-8.269753h0.341021c42.542336 0.341021 83.550079 15.942719 115.094497 43.906419 91.052535 77.241196 350.228291 377.254184 401.3814 436.677046l1.108318 1.278828c20.120223 26.429107 34.954625 56.353676 43.650653 88.153859a356.707685 356.707685 0 0 1 13.81134 136.408292zM588.132917-40.954458a142.376155 142.376155 0 0 0-46.464074 23.445175l-7.758222 7.24669 244.852885 239.311298 0.255765 0.170511a40.240446 40.240446 0 0 1-0.937807 56.865207 42.542336 42.542336 0 0 1-58.144034 1.023062l-246.387478-240.590126-35.636667 33.846308 245.620182 239.908084a40.155191 40.155191 0 0 1 9.037049 44.503205 41.77504 41.77504 0 0 1-38.620598 25.150279h-0.085255c-11.083174 0-21.654816-4.262759-29.413038-11.935725L378.234657 137.399384l-47.060861 45.355757 244.426609 238.714512a40.751977 40.751977 0 0 1 10.230622 15.686953c9.463325-5.797352 19.352926-10.997919 29.668804-15.431188l0.937807-0.426276c49.106985-17.392057 104.011323-1.619848 135.726251 39.046874 37.51228 39.728915 43.480143 99.066522 14.663891 145.189576l-0.682041 1.108318a834.98926 834.98926 0 0 1-98.725502 110.831737l86.107735 66.925319c20.461244 13.896595 43.821164 23.274665 68.459912 27.281658 26.002831 4.262759 52.687703 3.069187 78.264257-3.665973 38.109067-10.742153 73.489968-29.327783 103.670303-54.478061l0.767296-0.596787a261.22188 261.22188 0 0 0 104.096578-181.508284c2.898676-31.288652 0.426276-62.83307-7.331945-93.354425h-0.170511l-3.410207-12.703022c-5.712097-21.313796-15.345933-41.348764-28.475231-59.252352l-0.511531-0.596786c-31.032887-35.977687-305.213554-353.809008-391.66231-427.128466l-0.426276-0.341021a90.79677 90.79677 0 0 0-88.324369-19.182416l-0.341021 0.085255zM423.760925 578.424444a40.837233 40.837233 0 0 1-4.60378-3.836483L176.60615 337.578553a540.006328 540.006328 0 0 0-27.025893 31.459162l-0.341021 0.426276c-60.360669 82.185996-109.126634 208.875198-1.364082 347.329615l0.34102 0.511531A234.792773 234.792773 0 0 0 334.328238 813.558238h0.255766c38.876363 0.852552 77.496961-6.308884 113.218882-21.143285 41.604529-28.13421 80.992424-59.422862 117.652153-93.524936l0.596786-0.596786a874.718175 874.718175 0 0 0 130.269919-136.664058 39.728915 39.728915 0 0 0-7.161435-47.316626l-1.193573-1.193573-0.852552-1.278827a36.830239 36.830239 0 0 0-39.302639-14.663892c-60.019649 26.343851-154.482391 126.17767-155.420198 127.030222a42.542336 42.542336 0 0 1-54.819082 6.564649 40.325701 40.325701 0 0 1-13.64083-52.346682z m54.563317-61.724752c0.937807 0.852552 1.790359 1.790359 2.557655 2.728166 12.788277-11.765215 26.429107-23.871451 40.581467-35.551411a42.201315 42.201315 0 0 1-5.115311-4.43327l-244.256098-238.714512c-13.98185 13.726084-26.429107 26.088086-37.853301 37.512281l244.170843 238.458746z"  horiz-adv-x="1193" />
      
      <glyph glyph-name="a-tianjiamianxing" unicode="&#59575;" d="M512 896c282.763636 0 512-229.236364 512-512s-229.236364-512-512-512S0 101.236364 0 384 229.236364 896 512 896z m0-279.272727a46.545455 46.545455 0 0 1-46.545455-46.545455v-139.636363H325.818182a46.545455 46.545455 0 0 1 0-93.09091h139.589818L465.454545 197.818182a46.545455 46.545455 0 0 1 93.09091 0l-0.046546 139.636363H698.181818a46.545455 46.545455 0 0 1 0 93.09091h-139.636363V570.181818a46.545455 46.545455 0 0 1-46.545455 46.545455z"  horiz-adv-x="1024" />
      
      <glyph glyph-name="zhuanjiao2" unicode="&#59574;" d="M872.8576 234.154667l-128.955733 127.453866 57.344 56.5248 228.829866-226.304-0.546133-0.477866 0.546133-0.477867-228.898133-226.235733-57.1392 56.5248 134.280533 132.983466H409.6V234.154667h463.2576zM814.421333 567.432533h80.964267V864.0512H32.3584V-95.914667H546.133333V-16.042667H113.322667V783.9744h701.098666v-216.4736z"  horiz-adv-x="1030" />
      
      <glyph glyph-name="xiangxia1" unicode="&#59573;" d="M0 896h1024v-1024H0zM649.6768 486.4c5.9904 0 9.9328 0 11.9296-3.7376l2.048-1.8944c1.9456-3.7376 1.9456-5.632 1.9456-9.4208 0-3.7376-1.9968-5.632-3.9936-9.3696l-139.4176-176.64a15.7184 15.7184 0 0 0-9.9328-3.7376 15.7184 15.7184 0 0 0-9.984 3.7376L362.9056 463.872c-5.9904 7.4752-5.9904 15.0016 0 18.7904C366.848 486.4 370.8416 486.4 374.784 486.4h274.8416z"  horiz-adv-x="1024" />
      
      <glyph glyph-name="shangla" unicode="&#59572;" d="M0-128h1024V896H0zM649.6768 281.6c5.9904 0 9.9328 0 11.9296 3.7376l2.048 1.8944c1.9456 3.7888 1.9456 5.632 1.9456 9.4208 0 3.7376-1.9968 5.632-3.9936 9.3696L522.24 482.6624A15.7184 15.7184 0 0 1 512.256 486.4a15.7184 15.7184 0 0 1-9.984-3.7376L362.9056 304.12800000000004c-5.9904-7.4752-5.9904-15.0016 0-18.7904 3.9424-3.7376 7.936-3.7376 11.9296-3.7376h274.8416z"  horiz-adv-x="1536" />
      
      <glyph glyph-name="guanbi2" unicode="&#59571;" d="M511.36-126.272a510.912 510.912 0 1 0 0 1021.824 510.912 510.912 0 0 0 0-1021.824z m234.304 659.84a24.64 24.64 0 0 1 0 34.88l-52.16 52.096a24.576 24.576 0 0 1-34.816 0l-147.776-147.84-147.84 147.84a24.576 24.576 0 0 1-34.752 0l-52.16-52.096a24.64 24.64 0 0 1 0-34.88l147.84-147.776-147.84-147.84a24.576 24.576 0 0 1 0-34.688l52.16-52.224c9.6-9.6 25.216-9.6 34.816 0l147.776 147.84 147.84-147.84c9.6-9.6 25.088-9.6 34.752 0l52.16 52.224a24.576 24.576 0 0 1 0 34.752l-147.84 147.84 147.84 147.712z"  horiz-adv-x="1024" />
      
      <glyph glyph-name="xiugai1" unicode="&#59570;" d="M827.648 700.928a103.253333 103.253333 0 0 0 16.938667-140.117333l-4.864-6.101334L403.626667 44.970667a51.626667 51.626667 0 0 0-42.752-17.962667l-162.389334 11.093333a51.626667 51.626667 0 0 0-47.957333 47.872l-9.770667 139.306667a51.626667 51.626667 0 0 0 11.861334 36.693333l427.093333 511.872a103.253333 103.253333 0 0 0 145.408 13.098667l102.528-86.016z m-176.896-235.776l-127.957333 107.306667-295.978667-354.730667 6.741333-96.426667 116.266667-7.978666 300.928 351.829333z m122.026667 170.410667L670.464 721.493333a17.92 17.92 0 0 1-22.954667 0l-2.304-2.304-67.712-81.152 128.725334-108.032 68.778666 80.341334a17.92 17.92 0 0 1 0.085334 22.954666l-2.304 2.304zM554.666667 128m42.666666 0l256 0q42.666667 0 42.666667-42.666667l0 0q0-42.666667-42.666667-42.666666l-256 0q-42.666667 0-42.666666 42.666666l0 0q0 42.666667 42.666666 42.666667Z"  horiz-adv-x="1024" />
      
      <glyph glyph-name="xiangyou2" unicode="&#59569;" d="M311.168 755.52a42.688 42.688 0 0 0 56.32 3.52l4.032-3.52 341.312-341.376a42.688 42.688 0 0 0 3.52-56.32l-3.52-3.968-341.312-341.376a42.688 42.688 0 0 0-63.872 56.32l3.52 4.032L622.272 384 311.168 695.168a42.688 42.688 0 0 0-3.52 56.32l3.52 4.032z"  horiz-adv-x="1024" />
      
      <glyph glyph-name="shijian3" unicode="&#59568;" d="M892.16 404.48c0 41.984 25.4976 78.8992 64.9728 94.0544l20.1728 7.7312-5.3248 20.992a492.9536 492.9536 0 0 1-53.8624 130.0992l-11.0592 18.5856-19.7632-8.7552c-13.0048-5.8368-27.136-8.8064-41.4208-8.8064a99.584 99.584 0 0 0-70.9632 29.4912 100.1472 100.1472 0 0 0-20.5824 112.384l8.8064 19.8144-18.6368 11.008A495.616 495.616 0 0 1 614.2976 884.9408l-20.9408 5.3248-7.7824-20.1728A100.4032 100.4032 0 0 0 491.52 805.0688c-41.984 0-78.848 25.5488-94.0544 65.024L389.7344 890.2656l-20.992-5.3248a492.6976 492.6976 0 0 1-130.048-53.8624l-18.6368-11.0592 8.7552-19.7632a100.2496 100.2496 0 0 0-20.5312-112.384 101.2736 101.2736 0 0 0-112.4352-20.6848l-19.712 8.704-11.0592-18.4832A490.1376 490.1376 0 0 1 11.1104 527.2576l-5.3248-20.9408 20.1216-7.7824A100.4032 100.4032 0 0 0 90.9312 404.48c0-41.984-25.5488-78.8992-65.024-94.0544l-20.1728-7.7824 5.3248-20.9408a493.1584 493.1584 0 0 1 53.8624-130.0992l11.0592-18.6368 19.7632 8.8064c13.0048 5.8368 27.136 8.8064 41.3696 8.8064 26.88 0 52.0704-10.4448 71.0144-29.4912 29.696-29.696 37.7856-73.7792 20.5824-112.384l-8.8064-19.8144 18.6368-11.008c40.6016-24.064 84.48-42.1888 130.2016-53.8624l20.9408-5.3248 7.7312 20.1728A100.4544 100.4544 0 0 0 491.52 3.84c41.984 0 78.8992-25.4976 94.0544-64.9728l7.7824-20.1728 20.9408 5.3248a493.3632 493.3632 0 0 1 130.0992 53.8624l18.6368 11.0592-8.8064 19.7632a100.1984 100.1984 0 0 0 20.5824 112.384 101.376 101.376 0 0 0 112.4352 20.6848l19.712-8.704 11.008 18.4832a490.24 490.24 0 0 1 54.016 130.1504l5.3248 20.992-20.224 7.7312A100.1984 100.1984 0 0 0 892.16 404.48z m-6.144-210.7392a149.9648 149.9648 0 0 1-145.664-38.2464 148.224 148.224 0 0 1-38.144-145.5616 445.6448 445.6448 0 0 0-80.6912-33.3824A148.224 148.224 0 0 1 491.52 52.48c-54.6816 0-103.6288-29.184-129.9456-75.9296a446.208 446.208 0 0 0-80.896 33.4336c14.08 51.2 0 107.4688-38.0928 145.5104a149.6576 149.6576 0 0 1-145.6128 38.2976 444.6208 444.6208 0 0 0-33.3824 80.6912A148.224 148.224 0 0 1 139.5712 404.48c0 54.6816-29.184 103.6288-75.9808 129.9456a441.344 441.344 0 0 0 33.4848 80.7424 149.9648 149.9648 0 0 1 145.6128 38.2464 148.224 148.224 0 0 1 38.1952 145.6128 444.5184 444.5184 0 0 0 80.64 33.3824A148.224 148.224 0 0 1 491.52 756.4288c54.6816 0 103.6288 29.184 129.9456 75.9808a446.6176 446.6176 0 0 0 80.896-33.4336c-14.1312-51.2 0-107.4688 38.0928-145.5104a149.7088 149.7088 0 0 1 145.6128-38.2976c13.7216-25.7536 24.9344-52.736 33.3824-80.6912A148.1728 148.1728 0 0 1 843.52 404.48c0-54.784 29.184-103.7312 75.9296-129.9968a442.0608 442.0608 0 0 0-33.4848-80.7424zM491.52 554.24A149.9136 149.9136 0 0 1 341.76 404.48 149.9136 149.9136 0 0 1 491.52 254.72 149.9136 149.9136 0 0 1 641.28 404.48 149.9136 149.9136 0 0 1 491.52 554.24z m0-250.88A101.2224 101.2224 0 0 0 390.4 404.48c0 55.7568 45.3632 101.12 101.12 101.12s101.12-45.3632 101.12-101.12A101.2224 101.2224 0 0 0 491.52 303.36z"  horiz-adv-x="1024" />
      
      <glyph glyph-name="yinyongziduan" unicode="&#59567;" d="M824.256 800a176.384 176.384 0 0 0 9.792-352.512l-46.72-104.96a176.384 176.384 0 1 0-258.944-57.536L404.416 392.96a175.744 175.744 0 0 0-93.952-15.168l-43.648-89.6a176.384 176.384 0 1 0-110.464 14.912l57.408 117.696a176.384 176.384 0 1 0 269.376 43.968l122.176-106.176c23.488 11.584 49.92 18.112 77.888 18.112l3.392-0.128 43.52 97.92A176.384 176.384 0 0 0 824.256 800z m-635.072-599.744a70.528 70.528 0 1 1 0-141.12 70.528 70.528 0 0 1 0 141.12z m493.952 70.528a70.528 70.528 0 1 1 0-141.12 70.528 70.528 0 0 1 0 141.12zM330.24 623.616a70.528 70.528 0 1 1 0-141.12 70.528 70.528 0 0 1 0 141.12z m493.952 70.528a70.592 70.592 0 1 1 0-141.12 70.592 70.592 0 0 1 0 141.12z"  horiz-adv-x="1024" />
      
      <glyph glyph-name="BI-shanchu1" unicode="&#59566;" d="M512 853.333333c259.2 0 469.333333-210.133333 469.333333-469.333333s-210.133333-469.333333-469.333333-469.333333S42.666667 124.8 42.666667 384 252.8 853.333333 512 853.333333zM391.338667 565.034667a42.666667 42.666667 0 0 1-60.373334-60.373334L451.669333 384l-120.704-120.661333a42.666667 42.666667 0 0 1-3.541333-56.32l3.541333-4.053334a42.666667 42.666667 0 0 1 60.373334 0L512 323.669333l120.661333-120.704a42.666667 42.666667 0 0 1 56.32-3.541333l4.053334 3.541333a42.666667 42.666667 0 0 1 0 60.373334L572.330667 384l120.704 120.661333a42.666667 42.666667 0 0 1 3.541333 56.32l-3.541333 4.053334a42.666667 42.666667 0 0 1-60.373334 0L512 444.330667z"  horiz-adv-x="1024" />
      
      <glyph glyph-name="riqi5" unicode="&#59565;" d="M266.666667 768v-85.333333H256a85.333333 85.333333 0 0 1-85.12-78.933334L170.666667 597.333333v-469.333333a85.333333 85.333333 0 0 1 78.933333-85.12L256 42.666667h512a85.333333 85.333333 0 0 1 85.12 78.933333L853.333333 128V597.333333a85.333333 85.333333 0 0 1-78.933333 85.12L768 682.666667h-11.52V768H768a170.666667 170.666667 0 0 0 170.453333-162.133333L938.666667 597.333333v-469.333333a170.666667 170.666667 0 0 0-162.133334-170.453333L768-42.666667H256a170.666667 170.666667 0 0 0-170.453333 162.133334L85.333333 128V597.333333a170.666667 170.666667 0 0 0 162.133334 170.453334L256 768h10.666667zM405.333333 213.333333a42.666667 42.666667 0 0 0 0-85.333333h-85.333333a42.666667 42.666667 0 0 0 0 85.333333h85.333333z m298.666667 0a42.666667 42.666667 0 0 0 0-85.333333h-85.333333a42.666667 42.666667 0 0 0 0 85.333333h85.333333z m-298.666667 170.666667a42.666667 42.666667 0 0 0 0-85.333333h-85.333333a42.666667 42.666667 0 0 0 0 85.333333h85.333333z m298.666667 0a42.666667 42.666667 0 0 0 0-85.333333h-85.333333a42.666667 42.666667 0 0 0 0 85.333333h85.333333z m-298.666667 170.666667a42.666667 42.666667 0 1 0 0-85.333334h-85.333333a42.666667 42.666667 0 1 0 0 85.333334h85.333333z m298.666667 0a42.666667 42.666667 0 0 0 0-85.333334h-85.333333a42.666667 42.666667 0 0 0 0 85.333334h85.333333zM341.333333 832a42.666667 42.666667 0 0 0 42.666667-42.666667v-128a42.666667 42.666667 0 1 0-85.333333 0v128a42.666667 42.666667 0 0 0 42.666666 42.666667z m341.333334 0a42.666667 42.666667 0 0 0 42.666666-42.666667v-128a42.666667 42.666667 0 0 0-85.333333 0v128a42.666667 42.666667 0 0 0 42.666667 42.666667zM608 768v-85.333333h-192V768h192z"  horiz-adv-x="1024" />
      
      <glyph glyph-name="wenben2" unicode="&#59564;" d="M288.426667 85.333333c38.912 0 74.112 7.68 105.6 23.04 31.488 15.36 56.32 36.48 74.496 63.36 18.176 26.88 27.264 56.96 27.264 90.24 0 57.856-23.04 102.4-69.12 133.632a222.72 222.72 0 0 1-49.152 25.344c-17.92 6.656-43.264 14.08-76.032 22.272l-13.056 3.072c-32.768 8.704-57.6 16.896-74.496 24.576-16.896 7.68-28.928 16.384-36.096 26.112-7.168 9.728-11.008 22.528-11.52 38.4V538.453333c0 14.848 5.12 28.8 15.36 41.856 10.24 13.056 24.576 23.424 43.008 31.104 18.432 7.68 39.68 11.52 63.744 11.52 22.528 0 43.136-4.224 61.824-12.672 18.688-8.448 33.28-19.2 43.776-32.256s15.744-26.24 15.744-39.552h76.8v2.304c-0.512 27.648-9.6 53.76-27.264 78.336-17.664 24.576-41.6 44.16-71.808 58.752A224.725333 224.725333 0 0 1 288.426667 699.733333c-37.376 0-71.296-7.168-101.76-21.504-30.464-14.336-54.272-33.792-71.424-58.368a139.093333 139.093333 0 0 1-25.728-81.408c0-54.272 22.272-95.488 66.816-123.648 13.312-8.704 27.52-15.872 42.624-21.504s36.992-12.288 65.664-19.968l25.344-6.144c34.304-9.216 60.544-18.176 78.72-26.88 18.176-8.704 31.104-19.072 38.784-31.104 7.68-12.032 11.52-27.776 11.52-47.232 0-18.432-5.504-35.328-16.512-50.688s-26.368-27.392-46.08-36.096c-19.712-8.704-42.368-13.056-67.968-13.056s-48.256 4.992-67.968 14.976a113.237333 113.237333 0 0 0-46.08 41.472A108.842667 108.842667 0 0 0 157.866667 277.333333H81.066667v-3.072a182.613333 182.613333 0 0 1 28.032-96.384 189.909333 189.909333 0 0 1 74.112-67.968c31.232-16.384 66.304-24.576 105.216-24.576z m444.629333 0v76.8h-39.936a58.965333 58.965333 0 0 0-41.088 18.048 62.848 62.848 0 0 0-18.773333 41.856V423.253333h25.301333c20.992 1.024 38.656 8.96 52.992 23.808 14.336 14.848 21.504 32.512 21.504 52.992h-99.84V592.213333h-76.8v-370.944c0.512-24.576 7.04-47.232 19.626667-67.968 12.501333-20.736 29.269333-37.248 50.261333-49.536a132.949333 132.949333 0 0 1 68.352-18.432h38.4z m122.069333 0v240.384a99.584 99.584 0 0 0 29.568 68.352 94.634667 94.634667 0 0 0 67.968 29.184h2.304v76.8h-3.072c-40.96-1.024-76.544-13.824-106.752-38.4a78.293333 78.293333 0 0 1-26.88 27.264 76.074667 76.074667 0 0 1-37.632 11.136h-2.304V85.333333h76.8z"  horiz-adv-x="1024" />
      
      <glyph glyph-name="shuzi3" unicode="&#59563;" d="M215.210667 213.333333V725.333333H147.029333L42.666667 628.053333l1.365333-1.92a68.266667 68.266667 0 0 1 46.378667-17.28c18.645333 0 34.56 5.973333 47.744 17.92l8.874666 8.32V213.333333h68.181334z m312.832 0c18.645333 0.853333 34.432 7.466667 47.36 19.84 12.970667 12.373333 19.456 27.093333 19.456 44.16H349.354667c0 28.586667 7.594667 52.821333 22.826666 72.661334 15.232 19.84 42.197333 41.685333 80.810667 65.578666l30.72 18.56c18.645333 11.946667 33.536 21.973333 44.672 30.08 11.093333 8.106667 20.778667 16.64 28.970667 25.6 25.002667 26.88 37.546667 56.32 37.546666 88.32a136.533333 136.533333 0 0 1-21.162666 73.6c-14.08 22.613333-33.194667 40.533333-57.301334 53.76A160.384 160.384 0 0 1 438.016 725.333333c-28.202667 0-54.229333-6.485333-78.08-19.541333A153.770667 153.770667 0 0 1 302.933333 653.312c-14.08-21.973333-21.376-46.165333-21.845333-72.618667v-2.56h68.224c0 14.933333 3.968 28.8 11.946667 41.6 7.936 12.8 18.730667 22.912 32.384 30.378667a90.88 90.88 0 0 0 44.330666 11.221333c15.914667 0 30.677333-3.754667 44.330667-11.221333 13.653333-7.466667 24.405333-17.578667 32.384-30.378667 7.936-12.8 11.946667-26.666667 11.946667-41.6 0-15.786667-5.717333-29.994667-17.066667-42.581333-11.349333-12.586667-31.573333-27.818667-60.714667-45.738667l-10.88-7.04-19.114666-11.52c-22.272-13.653333-40.448-25.941333-54.570667-36.821333-14.08-10.88-26.581333-22.485333-37.504-34.858667a175.189333 175.189333 0 0 1-45.653333-118.4V213.333333h246.869333z m286.208 64c-25.002667 0-46.378667 8.106667-64.128 24.32-17.706667 16.213333-27.050667 35.84-27.946667 58.88h-68.224c0.469333-26.88 7.978667-51.498667 22.528-73.898666 14.506667-22.4 33.962667-40.234667 58.325333-53.461334 24.32-13.226667 50.773333-19.84 79.445334-19.84h6.826666c29.098667 0 55.893333 6.741333 80.469334 20.181334a154.88 154.88 0 0 1 58.282666 54.698666c14.336 23.04 21.504 48.213333 21.504 75.52 0 24.32-5.674667 46.933333-17.066666 67.84a152.746667 152.746667 0 0 1-47.061334 52.48c15.914667 12.8 28.330667 28.16 37.205334 46.08 8.832 17.92 13.269333 37.12 13.269333 57.6 0 25.173333-6.570667 48.213333-19.754667 69.12a144.853333 144.853333 0 0 1-53.205333 49.92A149.12 149.12 0 0 1 821.077333 725.333333h-6.826666c-26.837333 0-51.370667-6.186667-73.685334-18.56-22.272-12.373333-39.978667-29.013333-53.162666-49.92a126.976 126.976 0 0 1-19.797334-69.12V584.533333h68.224v3.2c0 20.48 7.594667 37.845333 22.826667 52.138667a78.250667 78.250667 0 0 0 55.594667 21.461333h6.826666c21.802667 0 40.32-7.168 55.552-21.461333 15.232-14.293333 22.869333-31.658667 22.869334-52.138667s-7.637333-37.888-22.869334-52.181333a78.250667 78.250667 0 0 0-55.552-21.418667h-30.72v-64h30.72c16.810667 0 32.256-3.84 46.378667-11.52 14.08-7.68 25.216-18.133333 33.408-31.36 8.192-13.226667 12.288-27.733333 12.288-43.52s-4.096-30.293333-12.288-43.52c-8.192-13.226667-19.328-23.68-33.408-31.36-14.08-7.68-29.568-11.52-46.378667-11.52h-6.826666zM85.333333 85.333333h896v-85.333333H85.333333z"  horiz-adv-x="1024" />
      
      <glyph glyph-name="neilianjie" unicode="&#59562;" d="M786.7904 742.4c43.7248 0 79.1552-35.4304 79.1552-79.1552v-356.1472a79.1552 79.1552 0 0 0-79.1552-79.1552h-118.7328v-118.784a79.1552 79.1552 0 0 0-79.1552-79.104H232.7552A79.1552 79.1552 0 0 0 153.6 109.2096V465.3568a79.1552 79.1552 0 0 0 79.1552 79.1552h118.7328v118.784A79.1552 79.1552 0 0 0 430.592 742.4h356.1472zM351.488 465.408h-118.784v-356.1984h356.1984v118.7328H430.6432a79.1552 79.1552 0 0 0-79.1552 79.1552V465.3568z m316.5696 0v-158.3104h118.784V663.2448H430.592v-118.7328h158.2592a79.1552 79.1552 0 0 0 79.1552-79.1552z"  horiz-adv-x="1024" />
      
      <glyph glyph-name="youlianjie" unicode="&#59561;" d="M237.2096 742.4c-43.7248 0-79.1552-35.4304-79.1552-79.1552v-356.1472a79.1552 79.1552 0 0 1 79.1552-79.1552h118.7328v-118.784a79.1552 79.1552 0 0 1 79.1552-79.104h356.1472c43.7248 0 79.1552 35.4304 79.1552 79.1552V465.3568a79.1552 79.1552 0 0 1-79.1552 79.1552h-118.6816v118.784A79.1552 79.1552 0 0 1 593.3056 742.4H237.2096z m0-79.1552h356.1472v-356.1472H237.2096V663.2448z"  horiz-adv-x="1024" />
      
      <glyph glyph-name="zuolianjie" unicode="&#59560;" d="M786.7904 742.4c43.7248 0 79.1552-35.4304 79.1552-79.1552v-356.1472a79.1552 79.1552 0 0 0-79.1552-79.1552h-118.7328v-118.784a79.1552 79.1552 0 0 0-79.1552-79.104H232.7552A79.1552 79.1552 0 0 0 153.6 109.2096V465.3568a79.1552 79.1552 0 0 0 79.1552 79.1552h118.6816v118.784A79.1552 79.1552 0 0 0 430.6944 742.4h356.1472z m0-79.1552H430.6432v-356.1472h356.1472V663.2448z"  horiz-adv-x="1024" />
      
      <glyph glyph-name="liucheng3" unicode="&#59559;" d="M609.499429 871.643429c53.906286 0 97.572571-43.666286 97.572571-97.572572v-146.285714C707.072 573.952 663.405714 530.285714 609.499429 530.285714h-48.786286v-97.499428h195.072c50.688 0 92.379429-38.765714 97.133714-88.137143l0.438857-9.435429v-97.426285l48.713143-0.073143c50.688 0 92.379429-38.692571 97.133714-88.137143l0.438858-9.362286v-146.285714c0-53.906286-43.666286-97.572571-97.572572-97.572572H707.072a97.499429 97.499429 0 0 0-97.572571 97.572572v146.285714C609.499429 194.048 653.165714 237.714286 707.072 237.714286h48.713143V335.286857H268.214857v-97.426286L316.854857 237.714286c50.688 0 92.379429-38.692571 97.133714-88.137143l0.438858-9.362286v-146.285714c0-53.906286-43.666286-97.572571-97.572572-97.572572H121.929143a97.499429 97.499429 0 0 0-97.572572 97.572572v146.285714C24.356571 194.048 68.022857 237.714286 121.929143 237.714286h48.713143V335.286857c0 50.688 38.765714 92.379429 88.137143 97.133714l9.435428 0.438858h194.998857V530.285714L414.500571 530.285714a97.499429 97.499429 0 0 0-97.133714 88.137143l-0.438857 9.362286v146.285714C316.928 827.977143 360.594286 871.643429 414.500571 871.643429z m-292.571429-731.428572H121.929143v-146.285714h194.998857v146.285714z m585.142857 0H707.072v-146.285714h194.998857v146.285714z m-292.571428 633.856H414.500571v-146.285714h194.998858v146.285714z"  horiz-adv-x="1024" />
      
      <glyph glyph-name="banbenhao" unicode="&#59557;" d="M692.096 796.032l167.424-192.085333v-472.746667c0-39.338667-34.432-73.813333-73.813333-73.813333H293.162667c-39.338667 0-73.813333 34.432-73.813334 73.813333V722.218667c0 39.338667 34.389333 73.813333 73.813334 73.813333h398.933333zM623.146667 746.666667H293.205333c-14.762667 0-24.576-9.813333-24.576-24.576v-590.933334c0-14.762667 9.813333-24.576 24.576-24.576h492.458667c14.848 0 24.661333 9.898667 24.661333 24.576V574.293333h-187.178666v172.373334z m113.28-516.992v-49.28H342.485333v49.28h393.941334z m-280.661334 295.509333l83.712-197.034667 88.704 196.949334h59.050667l-118.186667-246.186667v0.085333h-64.042666l-113.28 246.186667h64z m216.746667 216.618667v-118.186667h103.338667l-103.381334 118.186667z"  horiz-adv-x="1024" />
      
      <glyph glyph-name="bianji2" unicode="&#59555;" d="M85.333333 810.666667h853.333334v-853.333334H85.333333zM796.16 340.224l0.298667-4.224V256c0-83.626667-65.621333-151.893333-148.138667-156.245333l-8.32-0.213334H389.845333a162.304 162.304 0 0 0-162.090666 153.984l-0.213334 8.32V512c0 83.626667 65.621333 151.893333 148.138667 156.245333L384 668.458667h80a28.458667 28.458667 0 0 0 4.224-56.576l-4.224-0.341334H384c-52.693333 0-95.829333-40.96-99.328-92.714666L284.458667 512v-250.154667a105.386667 105.386667 0 0 1 98.474666-105.173333l6.912-0.213333H640c52.693333 0 95.829333 40.96 99.328 92.714666l0.213333 6.826667v80a28.458667 28.458667 0 0 0 56.576 4.224z m-19.370667 259.242667a66.944 66.944 0 0 0 0-94.677334l-237.141333-237.141333a33.450667 33.450667 0 0 0-23.381333-9.813333l-86.826667-0.768a33.450667 33.450667 0 0 0-33.365333 28.245333l-0.426667 5.546667 0.810667 86.784a33.450667 33.450667 0 0 0 9.813333 23.381333l237.141333 237.141333a66.944 66.944 0 0 0 94.634667 0l38.741333-38.698666z m-104.533333-118.741334l-52.949333 52.949334-166.058667-166.058667-0.426667-53.376 53.333334 0.426667 166.101333 166.058666z m64.298667 78.506667l-38.741334 38.741333a10.026667 10.026667 0 0 1-12.032 1.621334l-2.133333-1.621334-24.106667-24.064 52.949334-52.906666 24.064 24.021333a10.026667 10.026667 0 0 1 1.621333 12.074667l-1.621333 2.133333z"  horiz-adv-x="1024" />
      
      <glyph glyph-name="shanchu3" unicode="&#59556;" d="M0 896h1024v-1024H0zM716.8 469.248c17.1008 0 31.232-12.5952 33.6896-29.0304l0.3584-5.0176v-247.1936c0-103.8336-70.144-190.6688-161.3824-196.1984l-9.216-0.256H443.7504c-92.5696 0-165.7344 83.456-170.3424 186.112l-0.256 10.3424V435.2a34.048 34.048 0 0 0 67.7376 5.0176L341.248 435.2v-247.1936c0-69.0688 43.4688-123.648 95.6416-128.0512l6.8608-0.3072h136.4992c52.8896 0 98.56 51.712 102.2464 119.4496l0.256 8.9088V435.2c0 18.7904 15.2576 34.048 34.048 34.048z m-204.7488 256.1024c69.5296 0 127.9488-49.664 135.7824-116.6336l0.7168-8.448-0.0512-11.4176L733.952 588.8a34.048 34.048 0 1 0 0-68.096h-443.904a34.048 34.048 0 1 0 0 68.096h85.4016v6.656c0 72.2944 61.696 129.8944 136.6016 129.8944z m0-68.3008c-35.84 0-64.512-24.6784-67.9936-55.3472l-0.3072-6.1952-0.0512-6.656h136.6016v9.6256c-1.6896 32.2048-31.232 58.5728-68.2496 58.5728z"  horiz-adv-x="1024" />
      
      <glyph glyph-name="banben" unicode="&#59547;" d="M862.549333 844.714667c41.6 0 75.221333-33.621333 75.221334-75.178667v-736.938667c0-41.557333-33.621333-75.178667-75.221334-75.178666H191.104a75.136 75.136 0 0 0-75.178667 75.178666V769.536c0 41.557333 33.621333 75.178667 75.178667 75.178667zM852.394667 759.466667H201.216v-716.672h651.178667V759.424zM663.808 251.733333a38.4 38.4 0 0 0 4.864-76.501333l-4.821333-0.298667H384a38.4 38.4 0 0 0-4.821333 76.501334L384 251.733333h279.850667z m-227.157333 356.053334l2.56-4.096 86.656-161.92 81.664 161.152a38.4 38.4 0 0 0 70.4-30.293334l-1.877334-4.394666-114.944-226.986667a38.4 38.4 0 0 0-65.28-5.333333l-2.858666 4.565333L371.498667 567.466667a38.4 38.4 0 0 0 65.152 40.32z"  horiz-adv-x="1024" />
      
      <glyph glyph-name="banbenxuanzhong" unicode="&#59548;" d="M862.549333 844.714667c41.6 0 75.221333-33.621333 75.221334-75.178667v-736.938667c0-41.557333-33.621333-75.178667-75.221334-75.178666H191.104a75.136 75.136 0 0 0-75.178667 75.178666V769.536c0 41.557333 33.621333 75.178667 75.178667 75.178667zM852.394667 759.466667H201.216v-716.672h651.178667V759.424zM663.808 251.733333a38.4 38.4 0 0 0 4.864-76.501333l-4.821333-0.298667H384a38.4 38.4 0 0 0-4.821333 76.501334L384 251.733333h279.850667z m-227.157333 356.053334l2.56-4.096 86.656-161.92 81.664 161.152a38.4 38.4 0 0 0 70.4-30.293334l-1.877334-4.394666-114.944-226.986667a38.4 38.4 0 0 0-65.28-5.333333l-2.858666 4.565333L371.498667 567.466667a38.4 38.4 0 0 0 65.152 40.32z"  horiz-adv-x="1024" />
      
      <glyph glyph-name="jianquanxuanzhong" unicode="&#59549;" d="M533.674667 877.44l23.808-17.792 4.48-2.517333c16.426667-9.728 76.885333-46.165333 163.498666-79.317334a654.933333 654.933333 0 0 1 194.730667-38.613333h44.629333v-399.914667c0-200.704-279.466667-413.312-431.146666-413.312-147.626667 0-421.632 205.482667-430.848 403.072l-0.256 10.24V739.157333l45.909333 0.128c15.914667 0.768 97.28 6.058667 182.144 35.072l9.813333 3.456a875.264 875.264 0 0 1 157.013334 74.752l11.093333 7.082667 25.173333 17.792z m0.853333-103.125333h-1.237333l-5.973334-3.584c-25.429333-14.933333-58.666667-32.170667-98.56-49.493334l-13.610666-5.802666c-14.933333-6.272-30.122667-12.202667-45.610667-17.834667-47.573333-17.28-97.408-29.013333-147.072-36.352l-17.066667-2.346667-17.493333-2.005333v-317.610667c0-131.242667 212.693333-320.682667 338.602667-327.765333l7.168-0.213333c123.434667 0 337.493333 186.538667 345.6 320.298666l0.213333 7.68-0.042667 317.141334-5.76 0.554666a767.957333 767.957333 0 0 0-21.717333 2.56l-11.562667 1.706667a717.568 717.568 0 0 0-145.408 36.864 1133.525333 1133.525333 0 0 0-139.776 64.554667l-20.693333 11.648z m273.792-375.253334a38.4 38.4 0 0 0 3.242667-50.346666l-3.456-3.925334-166.229334-164.949333a38.4 38.4 0 0 0-52.096-1.877333l-3.584 3.498666-81.152 90.752a38.4 38.4 0 0 0 53.504 54.826667l3.712-3.626667 54.186667-60.544 137.557333 136.405334a38.4 38.4 0 0 0 54.314667-0.213334zM502.613333 678.4a133.973333 133.973333 0 0 0 134.4-134.4 133.546667 133.546667 0 0 0-52.565333-106.624c18.56-8.704 35.968-20.266667 51.712-34.688l6.613333-6.314667-54.314666-54.272c-50.218667 50.218667-132.693333 51.456-184.618667 5.12l-6.314667-5.973333a133.162667 133.162667 0 0 1-38.741333-91.392l0.085333-8.533333-76.757333-3.242667a210.048 210.048 0 0 0 53.376 149.290667l8.576 9.002666a207.786667 207.786667 0 0 0 70.229333 46.208 133.546667 133.546667 0 0 0-46.08 100.693334l0.213334 8.277333C372.48 621.397333 431.189333 678.4 502.656 678.4z m0-76.8c-31.402667 0-57.6-26.538667-57.6-57.6l0.341334-6.442667c2.986667-28.842667 27.434667-51.285333 55.978666-51.2l5.333334 0.170667a57.130667 57.130667 0 0 1 53.546666 57.472 57.173333 57.173333 0 0 1-57.6 57.6z"  horiz-adv-x="1024" />
      
      <glyph glyph-name="jianquan" unicode="&#59550;" d="M533.674667 877.44l23.808-17.792 4.48-2.517333c16.426667-9.728 76.885333-46.165333 163.498666-79.317334a654.933333 654.933333 0 0 1 194.730667-38.613333h44.629333v-399.914667c0-200.704-279.466667-413.312-431.146666-413.312-147.626667 0-421.632 205.482667-430.848 403.072l-0.256 10.24V739.157333l45.909333 0.128c15.914667 0.768 97.28 6.058667 182.144 35.072l9.813333 3.456a875.264 875.264 0 0 1 157.013334 74.752l11.093333 7.082667 25.173333 17.792z m0.853333-103.125333h-1.237333l-5.973334-3.584c-25.429333-14.933333-58.666667-32.170667-98.56-49.493334l-13.610666-5.802666c-14.933333-6.272-30.122667-12.202667-45.610667-17.834667-47.573333-17.28-97.408-29.013333-147.072-36.352l-17.066667-2.346667-17.493333-2.005333v-317.610667c0-131.242667 212.693333-320.682667 338.602667-327.765333l7.168-0.213333c123.434667 0 337.493333 186.538667 345.6 320.298666l0.213333 7.68-0.042667 317.141334-5.76 0.554666a767.957333 767.957333 0 0 0-21.717333 2.56l-11.562667 1.706667a717.568 717.568 0 0 0-145.408 36.864 1133.525333 1133.525333 0 0 0-139.776 64.554667l-20.693333 11.648z m273.792-375.253334a38.4 38.4 0 0 0 3.242667-50.346666l-3.456-3.925334-166.229334-164.949333a38.4 38.4 0 0 0-52.096-1.877333l-3.584 3.498666-81.152 90.752a38.4 38.4 0 0 0 53.504 54.826667l3.712-3.626667 54.186667-60.544 137.557333 136.405334a38.4 38.4 0 0 0 54.314667-0.213334zM502.613333 678.4a133.973333 133.973333 0 0 0 134.4-134.4 133.546667 133.546667 0 0 0-40.277333-96c16.981333-8.32 33.024-19.072 47.616-32.256l7.594667-7.253333L597.76 354.133333c-50.048 50.048-132.010667 51.456-184.106667 5.632l-6.826666-6.485333a133.12 133.12 0 0 1-38.741334-90.666667l0.085334-9.216-76.757334-3.242666a210.005333 210.005333 0 0 0 53.333334 149.162666l8.618666 9.130667a207.488 207.488 0 0 0 55.168 39.509333 133.546667 133.546667 0 0 0-40.234666 95.274667l0.213333 8.277333C372.48 621.397333 431.189333 678.4 502.656 678.4z m0-76.8c-31.402667 0-57.6-26.538667-57.6-57.6l0.341334-6.442667c2.986667-28.842667 27.434667-51.285333 55.978666-51.2l5.333334 0.170667a57.130667 57.130667 0 0 1 53.546666 57.472 57.173333 57.173333 0 0 1-57.6 57.6z"  horiz-adv-x="1024" />
      
      <glyph glyph-name="yingyongjibenxinxixuanzhong" unicode="&#59551;" d="M512 853.333333c259.2 0 469.333333-210.133333 469.333333-469.333333s-210.133333-469.333333-469.333333-469.333333S42.666667 124.8 42.666667 384 252.8 853.333333 512 853.333333z m0-85.333333a384 384 0 1 1 0-768 384 384 0 0 1 0 768z m167.424-162.602667a42.666667 42.666667 0 0 0 53.973333-53.973333l-90.453333-271.36a42.666667 42.666667 0 0 0-27.008-27.008l-271.36-90.453333a42.666667 42.666667 0 0 0-53.973333 53.973333l90.453333 271.36a42.666667 42.666667 0 0 0 27.008 27.008z m-54.016-107.946666L455.253333 440.746667l-56.704-170.197334 170.154667 56.746667 56.704 170.154667z"  horiz-adv-x="1024" />
      
      <glyph glyph-name="yingyongjibenxinxi" unicode="&#59552;" d="M512 853.333333c259.2 0 469.333333-210.133333 469.333333-469.333333s-210.133333-469.333333-469.333333-469.333333S42.666667 124.8 42.666667 384 252.8 853.333333 512 853.333333z m0-85.333333a384 384 0 1 1 0-768 384 384 0 0 1 0 768z m167.424-162.602667a42.666667 42.666667 0 0 0 53.973333-53.973333l-90.453333-271.36a42.666667 42.666667 0 0 0-27.008-27.008l-271.36-90.453333a42.666667 42.666667 0 0 0-53.973333 53.973333l90.453333 271.36a42.666667 42.666667 0 0 0 27.008 27.008z m-54.016-107.946666L455.253333 440.746667l-56.704-170.197334 170.154667 56.746667 56.704 170.154667z"  horiz-adv-x="1024" />
      
      <glyph glyph-name="shijian2" unicode="&#59553;" d="M724.565333 840.533333c28.586667 0 56.106667-10.752 77.098667-30.122666l3.968-4.181334 117.632-142.506666 3.285333-3.242667c17.578667-18.901333 28.245333-43.221333 30.165334-68.949333l0.341333-8.618667v-316.288c0-208.384-131.328-364.757333-327.338667-364.757333H211.84A113.749333 113.749333 0 0 0 98.133333 15.658667V726.741333A113.749333 113.749333 0 0 0 211.84 840.533333z m0-85.333333H211.84a28.416 28.416 0 0 1-28.373333-28.458667v-711.082666c0-15.744 12.714667-28.458667 28.373333-28.458667h417.877333c145.237333 0 242.005333 115.2 242.005334 279.424V582.912a28.458667 28.458667 0 0 1-9.173334 20.906667l-3.925333 4.224-116.352 140.842666-1.834667 1.450667a28.330667 28.330667 0 0 1-11.648 4.565333l-4.224 0.298667z m-202.368-563.114667a38.4 38.4 0 0 0 4.821334-76.501333l-4.821334-0.298667H374.784a38.4 38.4 0 0 0-4.821333 76.501334l4.821333 0.298666h147.413333z m132.394667 123.648a38.4 38.4 0 0 0 4.821333-76.501333l-4.821333-0.298667H374.784a38.4 38.4 0 0 0-4.821333 76.501334l4.821333 0.298666h279.808z m-15.914667 308.309334l3.882667-3.498667 83.328-85.930667a38.4 38.4 0 0 0 3.242667-49.664l-3.328-3.84-83.328-85.333333a38.4 38.4 0 0 0-58.325334 49.621333l3.413334 4.010667 57.216 58.581333-57.344 59.093334a38.4 38.4 0 0 0-2.645334 50.432l3.498667 3.84a38.4 38.4 0 0 0 50.389333 2.688z m-184.618666 0.768a38.4 38.4 0 0 0 4.053333-50.346667l-3.413333-3.968-57.216-58.581333 57.344-59.093334a38.4 38.4 0 0 0 2.645333-50.432l-3.498667-3.882666a38.4 38.4 0 0 0-50.432-2.645334l-3.84 3.498667-83.328 85.930667a38.4 38.4 0 0 0-3.242666 49.621333l3.328 3.925333 83.328 85.333334a38.4 38.4 0 0 0 54.272 0.64z"  horiz-adv-x="1024" />
      
      <glyph glyph-name="shijianxuanzhong" unicode="&#59554;" d="M724.565333 840.533333c28.586667 0 56.106667-10.752 77.098667-30.122666l3.968-4.181334 117.632-142.506666 3.285333-3.242667c17.578667-18.901333 28.245333-43.221333 30.165334-68.949333l0.341333-8.618667v-316.288c0-208.384-131.328-364.757333-327.338667-364.757333H211.84A113.749333 113.749333 0 0 0 98.133333 15.658667V726.741333A113.749333 113.749333 0 0 0 211.84 840.533333z m0-85.333333H211.84a28.416 28.416 0 0 1-28.373333-28.458667v-711.082666c0-15.744 12.714667-28.458667 28.373333-28.458667h417.877333c145.237333 0 242.005333 115.2 242.005334 279.424V582.912a28.458667 28.458667 0 0 1-9.173334 20.906667l-3.925333 4.224-116.352 140.842666-1.834667 1.450667a28.330667 28.330667 0 0 1-11.648 4.565333l-4.224 0.298667z m-202.368-563.114667a38.4 38.4 0 0 0 4.821334-76.501333l-4.821334-0.298667H374.784a38.4 38.4 0 0 0-4.821333 76.501334l4.821333 0.298666h147.413333z m132.394667 123.648a38.4 38.4 0 0 0 4.821333-76.501333l-4.821333-0.298667H374.784a38.4 38.4 0 0 0-4.821333 76.501334l4.821333 0.298666h279.808z m-15.914667 308.309334l3.882667-3.498667 83.328-85.930667a38.4 38.4 0 0 0 3.242667-49.664l-3.328-3.84-83.328-85.333333a38.4 38.4 0 0 0-58.325334 49.621333l3.413334 4.010667 57.216 58.581333-57.344 59.093334a38.4 38.4 0 0 0-2.645334 50.432l3.498667 3.84a38.4 38.4 0 0 0 50.389333 2.688z m-184.618666 0.768a38.4 38.4 0 0 0 4.053333-50.346667l-3.413333-3.968-57.216-58.581333 57.344-59.093334a38.4 38.4 0 0 0 2.645333-50.432l-3.498667-3.882666a38.4 38.4 0 0 0-50.432-2.645334l-3.84 3.498667-83.328 85.930667a38.4 38.4 0 0 0-3.242666 49.621333l3.328 3.925333 83.328 85.333334a38.4 38.4 0 0 0 54.272 0.64z"  horiz-adv-x="1024" />
      
      <glyph glyph-name="shangchuan1" unicode="&#59546;" d="M969.159111 683.690667l95.943111-26.168889A67.072 67.072 0 0 0 1112.177778 575.146667L966.485333-53.76a67.128889 67.128889 0 0 0-82.375111-47.075556l-157.809778 43.036445h155.591112a87.324444 87.324444 0 0 1 87.267555 87.267555v654.222223zM853.048889 781.340444a67.328 67.328 0 0 0 67.356444-67.328v-661.248a67.413333 67.413333 0 0 0-67.356444-67.328H89.315556A67.413333 67.413333 0 0 0 21.902222 52.764444V714.012444A67.413333 67.413333 0 0 0 89.315556 781.340444z m-273.777778-310.556444a21.248 21.248 0 0 1-29.070222-7.338667l-155.477333-212.423111-75.178667 104.021334a20.849778 20.849778 0 0 1-36.067556 0L144.924444 163.271111c-10.012444-13.824-4.152889-24.945778 13.198223-24.945778l634.823111 0.142223c17.237333 0 23.096889 11.093333 13.084444 24.803555l-219.392 300.174222a21.048889 21.048889 0 0 1-7.338666 7.338667zM276.423111 626.119111a60.928 60.928 0 0 1-61.013333-60.984889 61.013333 61.013333 0 1 1 60.984889 60.984889zM214.442667 824.490667a67.043556 67.043556 0 0 0 80.924444 42.780444l156.814222-42.780444z"  horiz-adv-x="1137" />
      
      <glyph glyph-name="chuangjian1" unicode="&#59545;" d="M946.124013 259.619354a37.430809 37.430809 0 0 0 37.544581-37.317037v-115.022944h114.738514a37.430809 37.430809 0 0 0 37.544581-37.260152v-0.284428a37.430809 37.430809 0 0 0-37.260152-37.544581H983.668594v-114.795401a37.430809 37.430809 0 0 0-37.260153-37.54458h-0.284428a37.430809 37.430809 0 0 0-37.544581 37.260152v115.079829h-114.7954a37.430809 37.430809 0 0 0-37.544581 37.260152v0.284429a37.430809 37.430809 0 0 0 37.260152 37.54458h115.022943v114.795401a37.430809 37.430809 0 0 0 37.317038 37.54458h0.284429z m37.544581 454.915172a153.193267 153.193267 0 0 0 152.339981-152.339981v-342.224543a37.430809 37.430809 0 0 0-37.260152-37.544581h-0.341315a37.430809 37.430809 0 0 0-37.544581 37.260152v342.452086a74.804733 74.804733 0 0 1-74.520304 75.146047h-305.24882v-152.339981a153.193267 153.193267 0 0 0-152.339981-152.339981H376.413441v-302.518304a74.804733 74.804733 0 0 1 74.520305-75.089162h342.850286a37.430809 37.430809 0 0 0 37.544581-37.317038v-0.284429a37.430809 37.430809 0 0 0-37.260153-37.54458H453.607375a153.193267 153.193267 0 0 0-152.283096 152.339981V411.959336a302.802733 302.802733 0 0 0 302.575191 302.57519h379.769124z m-379.769124-75.089162a227.998 227.998 0 0 1-227.486029-227.486028h152.339981a74.804733 74.804733 0 0 1 75.089162 74.520304V639.388478zM113.885804 668.4002c12.401089 0 22.469863-9.955002 22.469863-22.356091v-68.888618h68.831731c12.344203 0 22.412977-9.955002 22.469863-22.356091V554.628743a22.412977 22.412977 0 0 0-22.356091-22.469863H136.355667v-68.831732a22.469863 22.469863 0 1 0-44.996612-0.170657V532.15888H22.584209a22.469863 22.469863 0 1 0-0.170657 44.996611h68.945503V645.930337c0 12.344203 9.955002 22.412977 22.356092 22.469863H113.885804z m1137.714571 227.542914c12.401089 0 22.469863-9.955002 22.469863-22.356091v-68.888617h68.831732c12.344203 0 22.412977-9.955002 22.469862-22.356092V782.171657a22.412977 22.412977 0 0 0-22.356091-22.469863h-68.945503v-68.831731a22.469863 22.469863 0 1 0-44.996611-0.170657V759.701794h-68.774846a22.469863 22.469863 0 1 0-0.170657 44.996612h68.945503V873.473251c0 12.344203 9.955002 22.412977 22.356091 22.469863H1251.600375z"  horiz-adv-x="1365" />
      
      <glyph glyph-name="BI-gengduo" unicode="&#59544;" d="M512 640m0 64a64 64 0 1 1 0-128 64 64 0 1 1 0 128ZM512 384m0 64a64 64 0 1 1 0-128 64 64 0 1 1 0 128ZM512 128m0 64a64 64 0 1 1 0-128 64 64 0 1 1 0 128Z"  horiz-adv-x="1024" />
      
      <glyph glyph-name="BI-bianji" unicode="&#59543;" d="M909.184 707.157333a100.394667 100.394667 0 0 0 0-141.952l-355.712-355.754666a50.176 50.176 0 0 0-35.072-14.677334l-130.218667-1.152a50.218667 50.218667 0 0 0-50.261333 43.904l-0.426667 6.741334 1.194667 130.218666c0.128 13.184 5.376 25.770667 14.677333 35.072l355.754667 355.712a100.394667 100.394667 0 0 0 141.952 0l58.112-58.112z m-156.8-178.048l-79.36 79.36-249.173333-249.088-0.64-80.085333 80.042666 0.682667 249.130667 249.130666z m96.426667 117.76l-58.026667 58.026667a15.061333 15.061333 0 0 1-18.986667 1.962667l-2.346666-1.92-36.096-36.138667 79.36-79.36 36.138666 36.096a15.061333 15.061333 0 0 1 1.92 18.944l-1.92 2.346667zM440.021333 810.666667a42.666667 42.666667 0 0 0 4.949334-85.034667L439.978667 725.333333H320a149.333333 149.333333 0 0 1-149.12-141.141333L170.666667 576v-375.210667a158.122667 158.122667 0 0 1 149.76-157.866666l8.362666-0.256H704a149.333333 149.333333 0 0 1 149.12 141.141333L853.333333 192v120.021333a42.666667 42.666667 0 0 0 85.034667 4.949334l0.298667-4.992V192a234.666667 234.666667 0 0 0-225.237334-234.496L704-42.66666699999996H328.789333a243.456 243.456 0 0 0-243.285333 234.112L85.333333 200.78933300000006V576a234.666667 234.666667 0 0 0 225.237334 234.496L320 810.666667h120.021333z"  horiz-adv-x="1024" />
      
      <glyph glyph-name="BI-wenhaoda" unicode="&#59542;" d="M534.698667 191.146667c3.498667 21.205333 10.581333 40.832 21.632 59.392 12.757333 22.741333 31.872 45.525333 59.946666 69.546666 56.106667 49.322667 90.538667 82.176 103.253334 97.365334C751.402667 459.178667 768 508.458667 768 565.333333c0 75.861333-24.234667 135.253333-71.424 178.261334C646.869333 789.162667 581.802667 810.666667 500.224 810.666667c-91.818667 0-163.2-27.818667-214.186667-83.456-40.533333-42.154667-64.128-95.488-72.149333-159.957334l-0.128-0.981333a46.08 46.08 0 0 1 45.738667-51.498667c27.605333 0 51.029333 20.224 55.082666 47.488l0.768 5.034667c5.973333 37.376 18.688 68.224 38.229334 92.885333 30.634667 41.728 77.781333 61.994667 141.568 61.994667 53.546667 0 97.408-14.208 130.048-40.96 32.64-26.666667 47.36-65.28 47.36-115.84 0-50.602667-21.845333-73.344-47.36-104.96-7.68-10.112-22.954667-25.258667-43.349334-45.525333-68.864-60.672-110.933333-108.714667-128.810666-146.645334-8.661333-17.92-14.890667-37.504-18.645334-58.709333-0.213333-1.152-0.512-4.266667-0.896-9.344a47.786667 47.786667 0 0 1 47.616-51.498667h3.498667a50.773333 50.773333 0 0 1 50.090667 42.496zM480.768-42.666667c19.498667 0 35.541333 6.826667 49.28 19.328 13.781333 12.501333 20.650667 28.416 20.650667 48.853334a64.853333 64.853333 0 0 1-19.498667 47.786666c-13.738667 13.610667-30.933333 19.285333-50.432 19.285334-19.498667 0-35.541333-5.674667-49.28-19.328-13.738667-12.501333-19.498667-28.416-19.498667-47.744 0-19.285333 5.76-35.2 19.498667-48.853334 13.738667-12.501333 29.781333-19.328 49.28-19.328z"  horiz-adv-x="1024" />
      
      <glyph glyph-name="BI-wenhaoxiao" unicode="&#59533;" d="M512 853.333333c259.2 0 469.333333-210.133333 469.333333-469.333333s-210.133333-469.333333-469.333333-469.333333S42.666667 124.79999999999995 42.666667 384 252.8 853.333333 512 853.333333z m0-85.333333a384 384 0 1 1 0-768 384 384 0 0 1 0 768zM462.805333 171.09333300000003a42.666667 42.666667 0 1 1 85.333334 0 42.666667 42.666667 0 0 1-85.333334 0zM682.666667 504.064c0 37.632-15.36 69.674667-46.165334 96.170667C605.696 626.773333 564.394667 640 512.725333 640 463.872 640 422.4 624.384 389.973333 591.8720000000001c-14.890667-14.933333-27.221333-34.688-36.992-59.306667a31.914667 31.914667 0 0 1 23.594667-43.093333l1.365333-0.298667a42.666667 42.666667 0 0 1 46.208 22.698667c6.826667 13.653333 14.08 23.808 21.76 30.549333 18.517333 16.298667 37.162667 24.448 66.048 24.448s48.725333-5.845333 65.024-20.053333c16.298667-14.208 28.672-35.84 23.082667-60.714667-5.589333-24.832-33.322667-48.469333-55.808-67.157333-22.485333-18.688-38.058667-32.896-46.72-42.666667-11.818667-13.354667-18.901333-25.557333-24.746667-43.818666-2.389333-7.637333-3.925333-20.48-4.565333-38.570667a36.608 36.608 0 0 1 36.565333-37.888 40.533333 40.533333 0 0 1 40.192 35.541333c1.066667 8.533333 2.133333 14.634667 3.114667 18.133334 3.114667 10.88 6.826667 19.84 13.269333 28.245333 6.528 8.362667 20.352 21.376 41.514667 39.04 31.488 26.282667 52.693333 48.64 63.488 66.986667 10.837333 18.346667 16.256 38.4 16.256 60.16z"  horiz-adv-x="1024" />
      
      <glyph glyph-name="icon-shuaxin" unicode="&#59541;" d="M120.661333 439.722667l4.608-1.92 141.226667-68.48c21.290667-10.282667 30.506667-36.608 20.608-58.794667a41.856 41.856 0 0 0-51.754667-23.381333l-4.608 1.92-49.237333 23.808a336.426667 336.426667 0 0 1 63.573333-136.704 335.36 335.36 0 0 1 265.6-130.304c90.794667 0 175.786667 36.266667 238.506667 99.541333a41.258667 41.258667 0 0 0 60.032-1.024 45.610667 45.610667 0 0 0-0.981333-62.592A417.706667 417.706667 0 0 0 510.677333-42.66666699999996c-130.944 0-252.117333 60.842667-331.52 163.114667a427.392 427.392 0 0 0-77.653333 160.512l-20.650667-45.696c-9.984-22.101333-35.285333-31.573333-56.490666-21.162667-19.712 9.642667-28.928 33.109333-22.186667 54.101334l1.877333 4.778666 64.853334 143.573334a41.856 41.856 0 0 0 51.754666 23.168zM510.634667 810.666667c130.944 0 252.117333-60.842667 331.52-163.114667a427.392 427.392 0 0 0 77.738666-160.938667l23.253334 51.285334c9.984 22.144 35.285333 31.573333 56.490666 21.162666 19.712-9.642667 28.928-33.066667 22.186667-54.101333l-1.877333-4.778667-64.853334-143.530666a41.856 41.856 0 0 0-51.754666-23.168l-4.608 1.877333-141.226667 68.48c-21.290667 10.325333-30.506667 36.650667-20.608 58.794667a41.856 41.856 0 0 0 51.754667 23.381333l4.608-1.92 44.928-21.717333a336.341333 336.341333 0 0 1-61.994667 129.450666 335.36 335.36 0 0 1-265.514667 130.304c-90.88 0-175.786667-36.266667-238.506666-99.541333a41.258667 41.258667 0 0 0-60.074667 1.024 45.610667 45.610667 0 0 0 0.981333 62.592A417.706667 417.706667 0 0 0 510.72 810.666667z"  horiz-adv-x="1024" />
      
      <glyph glyph-name="BI-gengxinshijian" unicode="&#59534;" d="M512 810.666667c109.866667 0 213.248-41.813333 292.053333-115.626667l10.112-9.813333 50.944-52.608a42.666667 42.666667 0 0 0-57.344-62.976l-3.925333 3.626666-50.474667 52.053334A341.333333 341.333333 0 1 1 853.333333 384a42.666667 42.666667 0 0 0 85.333334 0.042667c0-235.648-191.018667-426.666667-426.666667-426.666667S85.333333 148.35199999999998 85.333333 384 276.352 810.666667 512 810.666667zM682.666667 554.666667a42.666667 42.666667 0 0 0 0 85.333333h128V768a42.666667 42.666667 0 0 0 85.333333 0v-170.666667a42.666667 42.666667 0 0 0-42.666667-42.666666h-170.666666zM469.333333 597.333333a42.666667 42.666667 0 0 0 42.368-37.674666L512 554.666667v-131.328l130.432-103.722667a42.666667 42.666667 0 0 0 9.898667-55.594667l-3.072-4.394666a42.666667 42.666667 0 0 0-55.552-9.898667l-4.394667 3.072-146.517333 116.565333a42.666667 42.666667 0 0 0-15.786667 27.861334L426.666667 402.773333V554.666667a42.666667 42.666667 0 0 0 42.666666 42.666666z"  horiz-adv-x="1024" />
      
      <glyph glyph-name="BI-xiugai" unicode="&#59538;" d="M827.648 700.928a103.253333 103.253333 0 0 0 16.938667-140.117333l-4.864-6.101334L403.626667 44.97066700000005a51.626667 51.626667 0 0 0-42.752-17.962667l-162.389334 11.093333a51.626667 51.626667 0 0 0-47.957333 47.872l-9.770667 139.306667a51.626667 51.626667 0 0 0 11.861334 36.693333l427.093333 511.872a103.253333 103.253333 0 0 0 145.408 13.098667l102.528-86.016z m-176.896-235.776l-127.957333 107.306667-295.978667-354.730667 6.741333-96.426667 116.266667-7.978666 300.928 351.829333z m122.026667 170.410667L670.464 721.493333a17.92 17.92 0 0 1-22.954667 0l-2.304-2.304-67.712-81.152 128.725334-108.032 68.778666 80.341334a17.92 17.92 0 0 1 0.085334 22.954666l-2.304 2.304zM554.666667 128m42.666666 0l256 0q42.666667 0 42.666667-42.666667l0 0q0-42.666667-42.666667-42.666666l-256 0q-42.666667 0-42.666666 42.666666l0 0q0 42.666667 42.666666 42.666667Z"  horiz-adv-x="1024" />
      
      <glyph glyph-name="BI-yincanghou" unicode="&#59540;" d="M512 768c228.906667 0 469.333333-168.106667 469.333333-375.466667 0-207.36-228.437333-375.466667-469.333333-375.466666S42.666667 185.17333299999996 42.666667 392.533333C42.666667 599.893333 283.093333 768 512 768z m0-85.333333c-196.48 0-384-143.616-384-290.133334 0-149.973333 179.925333-290.133333 384-290.133333s384 140.16 384 290.133333C896 539.050667 708.48 682.666667 512 682.666667zM512 580.266667a187.733333 187.733333 0 1 0 0-375.466667 187.733333 187.733333 0 0 0 0 375.466667z m0-85.333334a102.4 102.4 0 1 1 0-204.8 102.4 102.4 0 0 1 0 204.8zM811.648 796.458667a42.666667 42.666667 0 0 0 66.901333-52.736l-3.328-4.181334-672.768-750.933333a42.666667 42.666667 0 0 0-66.901333 52.736l3.328 4.181333 672.768 750.933334z"  horiz-adv-x="1024" />
      
      <glyph glyph-name="BI-shanchu" unicode="&#59539;" d="M768 512a42.666667 42.666667 0 0 0 42.368-37.674667L810.666667 469.333333v-308.992c0-130.944-89.173333-240.213333-204.629334-245.461333L597.333333-85.33333300000004H426.666667c-116.693333 0-208.725333 106.112-213.162667 235.946666L213.333333 160.29866700000002V469.333333a42.666667 42.666667 0 0 0 85.034667 4.992L298.666667 469.333333v-308.992c0-87.04 55.210667-155.648 121.173333-160.128L426.666667 0h170.666666c66.56 0 124.032 65.706667 127.786667 151.424l0.213333 8.96V469.333333a42.666667 42.666667 0 0 0 42.666667 42.666667zM170.666667 640m42.666666 0l597.333334 0q42.666667 0 42.666666-42.666667l0 0q0-42.666667-42.666666-42.666666l-597.333334 0q-42.666667 0-42.666666 42.666666l0 0q0 42.666667 42.666666 42.666667ZM512.085333 853.333333c110.08 0 202.112-79.274667 212.522667-184.832l0.725333-9.386666v-24.704h-85.333333l0.042667 22.442666C636.842667 718.293333 581.12 768 512.085333 768 443.306667 768 388.053333 718.72 384.213333 657.92L384 651.178667V640H298.666667v11.136C298.666667 763.477333 394.837333 853.333333 512.085333 853.333333z"  horiz-adv-x="1024" />
      
      <glyph glyph-name="BI-yincang" unicode="&#59537;" d="M512 768c228.906667 0 469.333333-168.106667 469.333333-375.466667 0-207.36-228.437333-375.466667-469.333333-375.466666S42.666667 185.17333299999996 42.666667 392.533333C42.666667 599.893333 283.093333 768 512 768z m0-85.333333c-196.48 0-384-143.616-384-290.133334 0-149.973333 179.925333-290.133333 384-290.133333s384 140.16 384 290.133333C896 539.050667 708.48 682.666667 512 682.666667zM512 580.266667a187.733333 187.733333 0 1 0 0-375.466667 187.733333 187.733333 0 0 0 0 375.466667z m0-85.333334a102.4 102.4 0 1 1 0-204.8 102.4 102.4 0 0 1 0 204.8z"  horiz-adv-x="1024" />
      
      <glyph glyph-name="BI-fenxiang" unicode="&#59536;" d="M768 810.666667a192 192 0 1 0-149.674667-312.277334l-192.853333-93.866666a169.984 169.984 0 0 0-16.256-95.872l158.165333-117.888a128 128 0 1 0-50.176-69.12l-163.882666 122.112a170.666667 170.666667 0 1 0 40.832 240.469333l186.794666 90.88A192 192 0 0 0 768 810.666667z m-128-682.666667a42.666667 42.666667 0 1 1 0-85.333333 42.666667 42.666667 0 0 1 0 85.333333z m-384 341.333333a85.333333 85.333333 0 1 1 0-170.666666 85.333333 85.333333 0 0 1 0 170.666666z m512 256a106.666667 106.666667 0 1 1 0-213.333333 106.666667 106.666667 0 0 1 0 213.333333z"  horiz-adv-x="1024" />
      
      <glyph glyph-name="icon-sousuo" unicode="&#59535;" d="M491.690667 810.666667a406.357333 406.357333 0 0 0 406.357333-406.357334 404.650667 404.650667 0 0 0-90.368-255.488l118.528-118.528a42.666667 42.666667 0 0 0 0-60.373333l-0.128-0.128a42.666667 42.666667 0 0 0-60.373333 0l-118.528 118.528a404.650667 404.650667 0 0 0-255.488-90.368 406.357333 406.357333 0 0 0 0 812.714667z m0-85.546667a320.810667 320.810667 0 1 1 0-641.621333 320.810667 320.810667 0 0 1 0 641.621333z"  horiz-adv-x="1024" />
      
      <glyph glyph-name="icon-jiahao" unicode="&#59532;" d="M128 426.666667m42.666667 0l682.666666 0q42.666667 0 42.666667-42.666667l0 0q0-42.666667-42.666667-42.666667l-682.666666 0q-42.666667 0-42.666667 42.666667l0 0q0 42.666667 42.666667 42.666667ZM554.666667 725.333333v-682.666666a42.666667 42.666667 0 0 0-85.333334 0V725.333333a42.666667 42.666667 0 1 0 85.333334 0z"  horiz-adv-x="1024" />
      
      <glyph glyph-name="icon-chenghao" unicode="&#59531;" d="M270.640885 685.698893m30.16989-30.169889l482.718229-482.718229q30.169889-30.169889 0-60.339779l0 0q-30.169889-30.169889-60.339779 0l-482.718229 482.718229q-30.169889 30.169889 0 60.339779l0 0q30.169889 30.169889 60.339779 0ZM783.530667 595.2L300.8 112.469333a42.666667 42.666667 0 0 0-60.330667 60.330667L723.2 655.530667a42.666667 42.666667 0 1 0 60.330667-60.330667z"  horiz-adv-x="1024" />
      
      <glyph glyph-name="icon-duihao" unicode="&#59530;" d="M883.2 627.8399999999999c17.066667-16.256 17.066667-42.581333 0-58.837333l-359.466667-382.165334-32.426666-30.890666a42.666667 42.666667 0 0 0-58.837334 0l-32.512 30.890666L183.466667 392.618667a40.106667 40.106667 0 0 0 0 58.794666c17.066667 16.213333 44.8 16.213333 61.866666 0l216.490667-205.781333 359.509333 382.208c17.066667 16.213333 44.8 16.213333 61.866667 0z"  horiz-adv-x="1024" />
      
      <glyph glyph-name="icon-xiangshang" unicode="&#59529;" d="M140.501333 183.168a42.666667 42.666667 0 0 0-3.541333 56.32l3.541333 4.010667 341.333334 341.333333a42.666667 42.666667 0 0 0 56.32 3.541333l4.010666-3.541333 341.333334-341.333333a42.666667 42.666667 0 0 0-56.32-63.872l-4.010667 3.541333L512 494.293333l-311.168-311.125333a42.666667 42.666667 0 0 0-56.32-3.541333l-4.010667 3.541333z"  horiz-adv-x="1024" />
      
      <glyph glyph-name="icon-xiangxia" unicode="&#59528;" d="M140.501333 584.832a42.666667 42.666667 0 0 1-3.541333-56.32l3.541333-4.010667 341.333334-341.333333a42.666667 42.666667 0 0 1 56.32-3.541333l4.010666 3.541333 341.333334 341.333333a42.666667 42.666667 0 0 1-56.32 63.872l-4.010667-3.541333L512 273.70666700000004 200.832 584.832a42.666667 42.666667 0 0 1-56.32 3.541333l-4.010667-3.541333z"  horiz-adv-x="1024" />
      
      <glyph glyph-name="BI-xiangshang" unicode="&#59524;" d="M544.128 517.973333l204.629333-233.856A42.666667 42.666667 0 0 0 716.629333 213.33333300000004H307.370667a42.666667 42.666667 0 0 0-32.128 70.784l204.629333 233.813334a42.666667 42.666667 0 0 0 64.256 0z"  horiz-adv-x="1024" />
      
      <glyph glyph-name="BI-xiangxia" unicode="&#59527;" d="M544.128 250.02666699999997l204.629333 233.856A42.666667 42.666667 0 0 1 716.629333 554.666667H307.370667a42.666667 42.666667 0 0 1-32.128-70.784l204.629333-233.813334a42.666667 42.666667 0 0 1 64.256 0z"  horiz-adv-x="1024" />
      
      <glyph glyph-name="BI-xiangyou" unicode="&#59526;" d="M645.973333 416.128L412.117333 620.757333A42.666667 42.666667 0 0 1 341.333333 588.629333v-409.258666a42.666667 42.666667 0 0 1 70.784-32.128l233.813334 204.629333a42.666667 42.666667 0 0 1 0 64.256z"  horiz-adv-x="1024" />
      
      <glyph glyph-name="BI-xiangzuo" unicode="&#59525;" d="M378.026667 351.87199999999996l233.856-204.629333A42.666667 42.666667 0 0 1 682.666667 179.37066700000003V588.629333a42.666667 42.666667 0 0 1-70.784 32.128l-233.813334-204.629333a42.666667 42.666667 0 0 1 0-64.256z"  horiz-adv-x="1024" />
      
      <glyph glyph-name="BI-tianjia" unicode="&#59523;" d="M298.666667 426.666667m42.666666 0l341.333334 0q42.666667 0 42.666666-42.666667l0 0q0-42.666667-42.666666-42.666667l-341.333334 0q-42.666667 0-42.666666 42.666667l0 0q0 42.666667 42.666666 42.666667ZM554.666667 554.666667v-341.333334a42.666667 42.666667 0 1 0-85.333334 0V554.666667a42.666667 42.666667 0 1 0 85.333334 0zM512 853.333333c259.2 0 469.333333-210.133333 469.333333-469.333333s-210.133333-469.333333-469.333333-469.333333S42.666667 124.79999999999995 42.666667 384 252.8 853.333333 512 853.333333z m0-93.866666a375.466667 375.466667 0 1 1 0-750.933334 375.466667 375.466667 0 0 1 0 750.933334z"  horiz-adv-x="1024" />
      
      <glyph glyph-name="icon-jibenxinxi" unicode="&#59522;" d="M768 853.333333a170.666667 170.666667 0 0 0 170.666667-170.666666v-597.333334a170.666667 170.666667 0 0 0-170.666667-170.666666H256a170.666667 170.666667 0 0 0-170.666667 170.666666V682.666667a170.666667 170.666667 0 0 0 170.666667 170.666666h512z m0-85.333333H256a85.333333 85.333333 0 0 1-85.12-78.933333L170.666667 682.666667v-597.333334a85.333333 85.333333 0 0 1 78.933333-85.12L256 0h512a85.333333 85.333333 0 0 1 85.12 78.933333L853.333333 85.33333300000004V682.666667a85.333333 85.333333 0 0 1-78.933333 85.12L768 768zM298.666667 426.666667h426.666666a42.666667 42.666667 0 0 0 0-85.333334H298.666667a42.666667 42.666667 0 0 0 0 85.333334zM298.666667 597.333333h170.666666a42.666667 42.666667 0 0 0 0-85.333333H298.666667a42.666667 42.666667 0 1 0 0 85.333333zM298.666667 256h426.666666a42.666667 42.666667 0 0 0 0-85.333333H298.666667a42.666667 42.666667 0 0 0 0 85.333333z"  horiz-adv-x="1024" />
      
      <glyph glyph-name="icon-yingyongshichang" unicode="&#59521;" d="M832 816c61.824 0 112-50.176 112-112v-640A112 112 0 0 0 832-48H192A112 112 0 0 0 80 64V704c0 61.824 50.176 112 112 112z m0-96H192a16 16 0 0 1-16-16v-640c0-8.832 7.168-16 16-16h640a16 16 0 0 1 16 16V704a16 16 0 0 1-16 16zM720 352a48 48 0 1 0 0-96h-416a48 48 0 0 0 0 96h416z m-192 192a48 48 0 0 0 0-96h-224a48 48 0 0 0 0 96h224z"  horiz-adv-x="1024" />
      
      <glyph glyph-name="xingzhuangjiehe" unicode="&#59519;" d="M972.8 896a51.2 51.2 0 0 0 51.2-51.2v-921.6a51.2 51.2 0 0 0-51.2-51.2H51.2a51.2 51.2 0 0 0-51.2 51.2V844.8a51.2 51.2 0 0 0 51.2 51.2h921.6z m-51.2-102.4H102.4v-819.2h819.2V793.6zM300.3904 563.0976l2.6624-5.3248 97.0752-226.56L462.7968 548.352c13.6192 47.2064 78.1824 49.2544 96.256 6.144l2.1504-6.144 62.6176-217.1392 97.1264 226.56a51.2 51.2 0 0 0 61.5936 28.928l5.632-2.048a51.2 51.2 0 0 0 28.928-61.5936l-2.048-5.632-153.6-358.4c-18.1248-42.2912-77.4144-40.4992-94.208 0.2048l-2.048 5.7856L512 349.5424l-53.248-184.5248c-12.6976-44.2368-71.7824-49.7664-93.4912-11.4688l-2.7136 5.4784-153.6 358.4a51.2 51.2 0 0 0 91.4432 45.6704z"  horiz-adv-x="1024" />
      
      <glyph glyph-name="xingzhuangjiehe11" unicode="&#59520;" d="M460.8 128H51.2a51.2 51.2 0 0 0-51.2 51.2V844.8a51.2 51.2 0 0 0 51.2 51.2h921.6a51.2 51.2 0 0 0 51.2-51.2v-665.6a51.2 51.2 0 0 0-51.2-51.2h-409.6v-153.6h153.6a51.2 51.2 0 0 0 0-102.4H307.2a51.2 51.2 0 0 0 0 102.4h153.6v153.6z m460.8 665.6H102.4v-563.2h819.2V793.6z"  horiz-adv-x="1024" />
      
      <glyph glyph-name="renwuweituo" unicode="&#59518;" d="M706.2016 312.832c24.32 2.56 47.7184 3.8912 62.4128-4.1472 16.7936-9.216 43.2128-26.0096 79.36-50.3808 12.8-11.4688 27.7504-24.9856 44.8512-40.5504 12.288-11.1104 65.1776-49.3056 77.824-69.9904 15.7184-25.4976 21.0944-21.6064 25.344-46.2336 2.816-16.64-9.5232-47.616-37.12-92.7744-73.5232-84.5824-129.8944-107.5712-169.0624-69.12-39.168 38.5024-81.2544 54.2208-126.3104 47.104-217.856 5.12-334.7456 7.68-350.72 7.68-16.0256 0-35.9936 7.168-60.0576 21.504l-80.5888 85.6064c-36.6592 40.3456-71.68 68.1984-104.96 83.6608-44.1856 20.48-51.9168 43.2128-53.1456 48.2816l-0.2048 1.024s-4.4544 23.2448 7.7824 33.024c12.1856 9.728 25.2416 9.984 45.568 9.984 20.224 0 83.5584-43.008 83.5584-43.008l1.024-0.6144 5.0176-3.3792 145.152-95.8464h209.1008l54.0672 33.3312c13.824 33.1776 2.3552 49.7664-34.56 49.7664-36.9152 0-68.5056 4.096-94.72 12.2368-36.096 18.8416-49.8688 37.4272-41.2672 55.7056 8.5504 18.2784 45.6704 25.9072 111.2576 22.9888h149.504a296.96 296.96 0 0 1 29.952 1.9456z m70.5024 301.1072c32 0 57.9072-25.9072 57.9072-57.856v-12.9024a57.856 57.856 0 0 0-57.856-57.856H184.832a57.856 57.856 0 0 0-57.9072 57.856V556.032c0 32 25.9072 57.9072 57.856 57.9072h591.872z m0 225.1776c32 0 57.9072-25.9072 57.9072-57.9072v-12.8512a57.856 57.856 0 0 0-57.856-57.9072H184.832a57.856 57.856 0 0 0-57.9072 57.856v12.9024c0 32 25.9072 57.856 57.856 57.856h591.872z"  horiz-adv-x="1024" />
      
      <glyph glyph-name="tianjiawordmobandanchuang-xiazai" unicode="&#59517;" d="M960.002926-123.61728c35.325074 0 63.997074 27.794286 63.997074 62.171429s-28.672 62.171429-64.002926 62.171428H64.002926C29.16352 1.211246 0.526629-26.612297 0-61.445851c0-34.377143 28.672-62.171429 64.002926-62.171429h896zM512 88.497006h2.048l4.827429 0.36864L512 88.502857c11.117714-0.076069 22.071589 2.615589 31.890286 7.82336l7.238217 4.388572 335.21664 234.934857a64.365714 64.365714 0 0 1 15.36 91.282285 68.093074 68.093074 0 0 1-86.454857 19.385783l-7.091932-4.388571-230.405851-161.429212 0.076068 545.499429A66.413714 66.413714 0 0 1 512 893.074286c-36.354926 0-65.828571-29.988571-65.828571-67.074926l-0.076069-545.42336L215.841646 441.929143a68.245211 68.245211 0 0 1-88.210286-8.630857l-5.336503-6.366355a64.289646 64.289646 0 0 1 8.777143-86.086217l6.582857-5.196068L472.871497 100.790857a67.876571 67.876571 0 0 1 29.696-11.702857c2.568777-0.356937 5.155109-0.555886 7.753143-0.585143l1.67936 0.070217V88.502857z"  horiz-adv-x="1024" />
      
      <glyph glyph-name="yiqingfangkong" unicode="&#59516;" d="M832 896a64 64 0 0 0 64-64v-281.856a38.144 38.144 0 0 0-76.288 0V819.2H76.8l-0.384-870.784h333.44a38.208 38.208 0 0 0 0-76.416H64a64 64 0 0 0-63.552 56.512L0-64 0.256 832a64 64 0 0 0 64 64H832z m-0.256-461.76a38.528 38.528 0 0 0-36.608-62.656l-14.464-82.24c33.472-11.008 60.288-34.624 76.032-64.704l79.36 28.8a38.528 38.528 0 0 0 74.048 6.656 38.528 38.528 0 1 0-61.056-42.432l-79.552-28.928c6.848-33.6 0.64-68.48-17.28-97.728l65.024-54.4a38.592 38.592 0 0 0 42.752-60.736 38.528 38.528 0 1 0-67.328 31.616l-64.64 54.144a133.12 133.12 0 0 0-93.76-34.88l-14.464-82.176a38.528 38.528 0 0 0-31.232-67.392 38.592 38.592 0 1 0-12.288 71.232l5.952 2.816 14.528 82.24a133.056 133.056 0 0 0-76.16 64.704l-79.232-28.8a38.528 38.528 0 0 0-74.048-6.656 38.528 38.528 0 1 0 55.616 46.144l5.312-3.648 79.68 28.8a135.424 135.424 0 0 0 17.28 97.792l-64.96 54.4a38.592 38.592 0 0 0-42.816 60.736 38.528 38.528 0 1 0 67.84-24.96l-0.512-6.528 64.64-54.272a133.12 133.12 0 0 0 93.696 34.88l14.4 82.24a38.528 38.528 0 0 0 31.36 67.328 38.592 38.592 0 0 0 42.88-11.392zM345.6 128a38.4 38.4 0 0 0 0-76.8H230.4a38.4 38.4 0 0 0 0 76.8h115.2z m64 256a38.4 38.4 0 1 0 0-76.8H230.4a38.4 38.4 0 1 0 0 76.8h179.2z m256 256a38.4 38.4 0 0 0 0-76.8H230.4a38.4 38.4 0 1 0 0 76.8h435.2z"  horiz-adv-x="1024" />
      
      <glyph glyph-name="zaixiafangcharuyihang" unicode="&#59514;" d="M704 384a64 64 0 0 0 64-64v-320a64 64 0 0 0-64-64H128a64 64 0 0 0-64 64V320a64 64 0 0 0 64 64h576z m-32-272h-512v-80h512v80z m0 176h-512v-80h512V288z m283.136 311.232a32 32 0 0 0 4.864-16.96v-204.544a32 32 0 0 0-48.96-27.136l-163.648 102.272a32 32 0 0 0 0 54.272l163.648 102.272a32 32 0 0 0 44.096-10.24zM704 832a64 64 0 0 0 64-64v-128a64 64 0 0 0-64-64H128a64 64 0 0 0-64 64V768a64 64 0 0 0 64 64h576z m-32-96h-512v-64h512v64z"  horiz-adv-x="1024" />
      
      <glyph glyph-name="xinyingyong1" unicode="&#59515;" d="M896 896a128 128 0 0 0 128-128v-768a128 128 0 0 0-128-128H128a128 128 0 0 0-128 128V768a128 128 0 0 0 128 128h768z m0-115.2H128a12.8 12.8 0 0 1-12.352-9.408L115.2 768v-768a12.8 12.8 0 0 1 9.408-12.352L128-12.8h768a12.8 12.8 0 0 1 12.352 9.408L908.8 0V768a12.8 12.8 0 0 1-9.408 12.352L896 780.8zM710.4 320a57.6 57.6 0 0 0 0-115.2H313.6a57.6 57.6 0 0 0 0 115.2h396.8z m-128 256a57.6 57.6 0 0 0 0-115.2H313.6a57.6 57.6 0 0 0 0 115.2h268.8z"  horiz-adv-x="1024" />
      
      <glyph glyph-name="menhuicon" unicode="&#59513;" d="M486.4 896A89.6 89.6 0 0 0 576 806.4v-396.8A89.6 89.6 0 0 0 486.4 320H89.6A89.6 89.6 0 0 0 0 409.6V768a128 128 0 0 0 128 128h358.4z m-25.6-115.2H128a12.8 12.8 0 0 1-12.352-9.408L115.2 768v-332.8h345.6V780.8zM934.4 256a89.6 89.6 0 0 0 89.6-89.6V0a128 128 0 0 0-128-128H128a128 128 0 0 0-128 128v166.4A89.6 89.6 0 0 0 89.6 256h844.8z m-25.6-115.2H115.2V0a12.8 12.8 0 0 1 9.408-12.352L128-12.799999999999955h768a12.8 12.8 0 0 1 12.352 9.408L908.8 0v140.8zM896 896a128 128 0 0 0 128-128v-358.4A89.6 89.6 0 0 0 934.4 320h-204.8A89.6 89.6 0 0 0 640 409.6V806.4A89.6 89.6 0 0 0 729.6 896H896z m-140.8-460.8h153.6V768a12.8 12.8 0 0 1-9.408 12.352L896 780.8h-140.8v-345.6z"  horiz-adv-x="1024" />
      
      <glyph glyph-name="shaixuan" unicode="&#59512;" d="M139.847915 864h863.56309031l9.41719875-0.4798575C1070.35109094 857.04207 1111.67879563 811.3356675 1111.67879563 756.75190594l-0.53983969-9.9570375-1.67950031-10.55685938c-4.19875125-20.51389688-13.01612812-37.66879313-25.91229094-51.7046175L732.4116275 317.56256530999997v-353.53482375a59.98215563 59.98215563 0 0 0-95.79150187-48.16567031l-204.77907844 152.23471031a59.98215563 59.98215563 0 0 0-24.17280844 48.16567031V317.56256530999997l-347.89650094 366.97082625-6.41809031 7.79767969C20.00356906 739.05717094 26.54162375 799.57916531 67.02957875 836.10829781 87.00363687 854.10294469 112.97591 864 139.847915 864z m821.57558156-107.30807625l-779.76801937 0.05998219a17.99464687 17.99464687 0 0 1-13.13609156-30.35097L499.50091813 376.34507719a59.98215563 59.98215563 0 0 0 16.37512874-41.20774032v-186.36455718a17.99464687 17.99464687 0 0 1 7.25784094-14.39571657l72.27849657-53.74401187a17.99464687 17.99464687 0 0 1 28.791435 14.3957175v239.92862156a59.98215563 59.98215563 0 0 0 16.55507531 41.38768688l333.68072906 349.93589437a17.99464687 17.99464687 0 0 1-13.01612719 30.41095219z"  horiz-adv-x="1152" />
      
      <glyph glyph-name="gongge" unicode="&#59511;" d="M360.74375 333.99375a101.25 101.25 0 0 0 101.25-101.25V35.25a101.25 101.25 0 0 0-101.25-101.25H163.25A101.25 101.25 0 0 0 62 35.25v197.49375a101.25 101.25 0 0 0 101.25 101.25h197.49375z m500.00625 0a101.25 101.25 0 0 0 101.25-101.25V35.25a101.25 101.25 0 0 0-101.25-101.25h-197.49375a101.25 101.25 0 0 0-101.25 101.25v197.49375a101.25 101.25 0 0 0 101.25 101.25H860.75z m-528.13125-101.25H191.375a28.125 28.125 0 0 1-28.125-28.125V63.375a28.125 28.125 0 0 1 28.125-28.125h141.24375a28.125 28.125 0 0 1 28.125 28.125v141.24375a28.125 28.125 0 0 1-28.125 28.125z m500.00625 0h-141.24375a28.125 28.125 0 0 1-28.125-28.125V63.375a28.125 28.125 0 0 1 28.125-28.125H832.625a28.125 28.125 0 0 1 28.125 28.125v141.24375a28.125 28.125 0 0 1-28.125 28.125zM360.74375 834a101.25 101.25 0 0 0 101.25-101.25v-197.49375a101.25 101.25 0 0 0-101.25-101.25H163.25a101.25 101.25 0 0 0-101.25 101.25V732.75A101.25 101.25 0 0 0 163.25 834h197.49375zM860.75 834A101.25 101.25 0 0 0 962 732.75v-197.49375a101.25 101.25 0 0 0-101.25-101.25h-197.49375a101.25 101.25 0 0 0-101.25 101.25V732.75a101.25 101.25 0 0 0 101.25 101.25H860.75zM332.61875 732.75H191.375a28.125 28.125 0 0 1-28.125-28.125v-141.24375a28.125 28.125 0 0 1 28.125-28.125h141.24375a28.125 28.125 0 0 1 28.125 28.125V704.625a28.125 28.125 0 0 1-28.125 28.125z m500.00625 0h-141.24375a28.125 28.125 0 0 1-28.125-28.125v-141.24375a28.125 28.125 0 0 1 28.125-28.125H832.625a28.125 28.125 0 0 1 28.125 28.125V704.625a28.125 28.125 0 0 1-28.125 28.125z"  horiz-adv-x="1024" />
      
      <glyph glyph-name="lunbo" unicode="&#59510;" d="M874.88 744v-720a120 120 0 0 0-120-120h-360a120 120 0 0 0-120 120V744a120 120 0 0 0 120 120h360a120 120 0 0 0 120-120z m-108-702V726a30 30 0 0 1-30 30h-324a30 30 0 0 1-30-30v-684a30 30 0 0 1 30-30h324a30 30 0 0 1 30 30zM1002.2 744c63.6 0 104.46-46.44 109.44-107.1L1112 627.6v-487.32c0-62.04-37.8-111.42-100.38-115.98L1002.2 24h-12.24a55.08 55.08 0 0 0 0 110.22h12.24c5.4 0 9 2.34 10.2 4.5l0.54 1.62V627.6c0 1.98-2.58 4.74-7.02 5.76l-3.72 0.36h-12.24a55.08 55.08 0 1 0 0 110.22h12.24zM141.8 744C78.2 744 37.4 697.56 32.36 636.9L32 627.6v-487.32c0-62.04 37.8-111.42 100.38-115.98L141.8 24h12.24a55.08 55.08 0 0 1 0 110.22H141.8c-5.4 0-9 2.34-10.2 4.5l-0.54 1.62V627.6c0 1.98 2.58 4.74 7.02 5.76l3.72 0.36h12.24a55.08 55.08 0 1 1 0 110.22H141.8z"  horiz-adv-x="1152" />
      
      <glyph glyph-name="wenben1" unicode="&#59509;" d="M885.33333312 864a106.66666688 106.66666688 0 0 0 106.66666688-106.66666688v-746.66666624a106.66666688 106.66666688 0 0 0-106.66666688-106.66666688H138.66666688a106.66666688 106.66666688 0 0 0-106.66666688 106.66666688V757.33333312a106.66666688 106.66666688 0 0 0 106.66666688 106.66666688z m-17.38666687-96H154.88a26.66666625 26.66666625 0 0 1-26.66666625-26.66666625v-714.82666688a26.66666625 26.66666625 0 0 1 26.66666625-26.66666718h713.06666625a26.66666625 26.66666625 0 0 1 26.66666719 26.66666718V741.3333337500001a26.66666625 26.66666625 0 0 1-26.66666719 26.66666625zM506.66666656 223.99999968999998a48 48 0 0 0 0-96h-213.33333281a48 48 0 0 0 0 96h213.33333281z m223.99999969 213.33333375a48 48 0 0 0 0-96H293.33333375a48 48 0 0 0 0 96h437.3333325z m0 213.33333281a48 48 0 0 0 0-96H293.33333375a48 48 0 0 0 0 96h437.3333325z"  horiz-adv-x="1024" />
      
      <glyph glyph-name="lianjie4" unicode="&#59508;" d="M714.88 888.192a56.576 56.576 0 0 0 48.256-65.408L613.184-70.33600000000001a60.416 60.416 0 0 0-67.648-49.92 56.576 56.576 0 0 0-48.256 65.472L647.296 838.336A60.416 60.416 0 0 0 714.88 888.32z m191.488-137.088c19.392 20.032 56.576 22.528 76.416 0l282.304-320 4.544-5.888a63.424 63.424 0 0 0-4.48-75.52l-282.368-320-5.248-5.12c-19.84-17.28-54.72-14.08-75.776 9.536-20.992 23.616-13.632 59.328 4.608 80l246.4 279.232-246.4 279.296-4.608 5.888c-15.104 22.592-14.848 52.608 4.608 72.576z m-527.36-5.184c18.176-20.672 19.712-54.144 4.48-76.8l-4.48-5.824L132.608 384l246.4-279.296c18.176-20.608 14.976-50.496-2.432-70.592-17.408-20.16-54.208-26.752-74.112-9.6l-5.248 5.12-282.304 320a63.424 63.424 0 0 0-4.544 75.584l4.48 5.888 282.368 320c19.84 22.528 61.888 17.28 81.792-5.184z"  horiz-adv-x="1280" />
      
      <glyph glyph-name="baobiao1" unicode="&#59507;" d="M992.0599925 864a119.98500188 119.98500188 0 0 0 119.98500187-119.98500188v-719.91001125a119.98500188 119.98500188 0 0 0-119.98500187-119.98500187L151.98500187-96l-8.998875 0.2999625A119.92500938 119.92500938 0 0 0 32 23.98500187000002L32.359955 744.01499813c0 66.23172094 53.75328094 119.98500188 119.98500189 119.98500187z m11.9985-321.85976719H140.28646437v-500.15748094a29.99625001 29.99625001 0 0 1 24.59692501-29.51630999l5.399325-0.47994h803.77952812a29.99625001 29.99625001 0 0 1 29.99625 29.99625V542.14023281z m-195.03562031-116.02549687a52.31346094 52.31346094 0 0 0 0-74.51068688l-146.68166438-144.70191187a59.99250094 59.99250094 0 0 0-84.28946438 0l-71.15110593 70.19122592L355.95950469 128.13198375000002a53.75328094 53.75328094 0 0 0-75.59055094 0 52.31346094 52.31346094 0 0 0-0.47994 73.97075344l0.5399325 0.47994 184.41694781 181.95725531a59.99250094 59.99250094 0 0 0 84.28946438 0l71.09111343-70.19122594 113.32583438 111.76602938a53.75328094 53.75328094 0 0 0 75.53055844 0zM974.0622425 756.01349812H170.28271437a29.99625001 29.99625001 0 0 1-29.99625-29.99625v-78.53018437h863.77202813V726.01724812a29.99625001 29.99625001 0 0 1-24.596925 29.51631001l-5.399325 0.47994z"  horiz-adv-x="1152" />
      
      <glyph glyph-name="menhu-shuaxin" unicode="&#59504;" d="M141.994312 443.477611a33.535916 33.535916 0 0 0 13.823965-6.57065l221.951445-176.12756a34.389247 34.389247 0 0 0-9.215977-58.879852l-91.391771-33.962582a398.76167 398.76167 0 0 1 329.812509-173.055568 398.76167 398.76167 0 0 1 330.239174 173.6529l10.66664 16.725291a59.989183 59.989183 0 0 0 83.199792 20.053283 62.037178 62.037178 0 0 0 19.711951-84.565122 511.572054 511.572054 0 0 0-78.591804-99.413084A518.82537 518.82537 0 0 0 606.974483-127.998293 518.82537 518.82537 0 0 0 160.426266 125.014407l-72.533152-26.879932a33.621249 33.621249 0 0 0-43.263892 20.394615 34.559914 34.559914 0 0 0-1.279997 18.773287l58.53852 279.892633a33.706582 33.706582 0 0 0 40.021234 26.282601zM606.974483 895.999147a518.82537 518.82537 0 0 0 424.788271-219.476785l74.922479 27.647931a33.621249 33.621249 0 0 0 43.263892-20.309283c2.133328-5.973318 2.559994-12.543969 1.279997-18.773286l-58.53852-279.892634a33.706582 33.706582 0 0 0-53.759866-19.797283L816.808625 541.525366a34.389247 34.389247 0 0 0 9.215977 58.879853l86.015785 31.99992a398.76167 398.76167 0 0 1-305.236571 140.799648 398.76167 398.76167 0 0 1-332.287169-176.895558l-9.983975-15.87196a59.989183 59.989183 0 0 0-83.114459-20.650615 61.951845 61.951845 0 0 0-20.309282 84.394456l13.1413 20.906614A518.82537 518.82537 0 0 0 606.974483 895.999147z"  horiz-adv-x="1194" />
      
      <glyph glyph-name="bianzu10" unicode="&#59506;" d="M783.872 896a115.2 115.2 0 0 0 115.2-115.2v-793.6a115.2 115.2 0 0 0-115.2-115.2h-409.6a115.2 115.2 0 0 0-115.2 115.2V780.8a115.2 115.2 0 0 0 115.2 115.2h409.6z m0-908.8V780.8h-409.6v-793.6h409.6zM1034.88 768c67.84 0 111.424-49.536 116.736-114.24L1152 643.84v-519.808c0-66.176-40.32-118.848-107.072-123.712L1034.88 0h-39.808a32 32 0 0 0-32 32v53.568a32 32 0 0 0 32 32h39.808c5.76 0 9.6 2.496 10.88 4.8l0.576 1.728V643.84c0 2.112-2.752 5.056-7.488 6.144l-3.968 0.384h-39.808a32 32 0 0 0-32 32V736a32 32 0 0 0 32 32h39.808zM117.12 768C49.28 768 5.76 718.464 0.384 653.76L0 643.84v-519.808c0-66.176 40.32-118.848 107.072-123.712L117.12 0h39.808a32 32 0 0 1 32 32v53.568a32 32 0 0 1-32 32H117.12c-5.76 0-9.6 2.496-10.88 4.8l-0.576 1.728V643.84c0 2.112 2.752 5.056 7.488 6.144l3.968 0.384h39.808a32 32 0 0 1 32 32V736a32 32 0 0 1-32 32H117.12z"  horiz-adv-x="1152" />
      
      <glyph glyph-name="menhu-zhankai" unicode="&#59505;" d="M963.273152 290.67644099999995c33.26891 0 60.395868-28.150616 60.395868-62.784405V-42.52449200000001a85.304898 85.304898 0 0 0-85.304898-85.304898H681.169853a61.675442 61.675442 0 0 0-60.395868 62.784405c0 34.633789 27.041653 62.784405 60.395868 62.784405h120.279907L639.796978 165.53415500000006a63.978674 63.978674 0 0 0 0 88.717095l1.620793 1.706098a59.286904 59.286904 0 0 0 83.854715-1.706098l177.434189-184.258581V227.89203599999996c0 34.719094 27.041653 62.86971 60.481172 62.86971z m-902.867044 0c33.43952 0 60.481173-28.150616 60.481173-62.784405v-157.814062l177.434189 184.25858a59.286904 59.286904 0 0 0 83.854715 1.535489l1.620793-1.535489c23.885372-24.738421 23.885372-63.978674 0-88.802399l-161.567478-167.794735h120.279907c33.354215 0 60.395868-28.150616 60.395868-62.784405a61.675442 61.675442 0 0 0-60.395868-62.784405H85.315138a85.304898 85.304898 0 0 0-85.304898 85.304898V227.89203599999996c0 34.633789 27.041653 62.784405 60.395868 62.784405zM938.364122 895.82939a85.304898 85.304898 0 0 0 85.304898-85.304898v-270.416528a61.675442 61.675442 0 0 0-60.395868-62.784405 61.675442 61.675442 0 0 0-60.481173 62.784405V697.922026l-177.434188-184.25858a59.286904 59.286904 0 0 0-83.854715-1.535489L639.796978 513.663446a63.978674 63.978674 0 0 0 0 88.802399l161.567477 167.794735h-120.279906a61.675442 61.675442 0 0 0-60.395868 62.784405c0 34.719094 27.041653 62.784405 60.395868 62.784405H938.364122zM342.509407 895.82939c33.354215 0 60.395868-28.150616 60.395868-62.784405a61.675442 61.675442 0 0 0-60.395868-62.784405h-120.279907L383.882283 602.465845c23.885372-24.738421 23.885372-63.978674 0-88.717095l-1.620793-1.706098a59.286904 59.286904 0 0 0-83.854716 1.706098l-177.434188 184.258581v-157.814062a61.675442 61.675442 0 0 0-60.481173-62.86971A61.675442 61.675442 0 0 0 0.01024 540.107964V810.524492a85.304898 85.304898 0 0 0 85.304898 85.304898z"  horiz-adv-x="1024" />
      
      <glyph glyph-name="menhu-shanchu" unicode="&#59503;" d="M960 704a64 64 0 1 0 0-128h-64v-576A128 128 0 0 0 768-128H256a128 128 0 0 0-128 128V576H64a64 64 0 0 0 0 128h896zM768 576H256v-576h512V576zM704 896a64 64 0 0 0 0-128h-384a64 64 0 0 0 0 128h384z"  horiz-adv-x="1024" />
      
      <glyph glyph-name="CombinedShape5" unicode="&#59499;" d="M533.76 860.16l2.432-0.896 3.52-1.536 0.896-0.512 384-192 2.688-1.408 2.432-1.408-5.12 2.816a64.448 64.448 0 0 0 28.608-28.608l-3.136 5.632c0.832-1.28 1.536-2.56 2.304-3.904l0.832-1.728a65.344 65.344 0 0 0 6.784-28.096v-1.024a63.68 63.68 0 0 0-2.048-15.488c0.768-2.816 1.28-5.632 1.6-8.512L960 576v-415.488a64 64 0 0 0-35.392-57.728l6.208 3.52a64 64 0 0 0-3.456-2.112l-2.752-1.408-384-192-0.768-0.448a64.32 64.32 0 0 0-3.648-1.6l-2.432-0.96-1.536-0.512a64.384 64.384 0 0 0-6.528-1.792l-2.048-0.384a56.768 56.768 0 0 0-11.136-1.088h-1.024a63.68 63.68 0 0 0-11.264 1.088l-1.92 0.384a56.192 56.192 0 0 0-8.064 2.304l-1.92 0.768a64.32 64.32 0 0 0-4.224 1.856l-0.704 0.384-384 192-2.88 1.472a64 64 0 0 0-3.072 1.92l5.952-3.392a64.384 64.384 0 0 0-15.04 10.368l-1.6 1.6-1.024 1.024a63.552 63.552 0 0 0-17.28 36.736L64 160V576c0 5.056 0.64 9.984 1.664 14.72l0.32 1.28A63.552 63.552 0 0 0 64 607.552v1.024a63.68 63.68 0 0 0 0.32 6.016l0.128 1.088A63.488 63.488 0 0 0 70.4 635.904l0.384 0.704 1.408 2.688 1.344 2.368-2.752-5.056a64.448 64.448 0 0 0 28.608 28.608l-5.056-2.752 2.368 1.344 2.688 1.408 384 192 0.832 0.448c1.344 0.64 2.752 1.28 4.096 1.792l1.92 0.768a64.064 64.064 0 0 0 14.08 3.328l1.152 0.128A64 64 0 0 0 511.488 864h1.024a63.68 63.68 0 0 0 19.712-3.264L533.76 860.16zM192 504.512v-304.896l256-128V376.448l-256 128z m640 0l-256-128v-304.832l256 128V504.448z m-320.064 224l-240.832-120.32L512 487.552 752.832 608 511.936 728.448z"  horiz-adv-x="1024" />
      
      <glyph glyph-name="shandian" unicode="&#59498;" d="M390.351863 211.533919l-101.105087-296.916205a37.498469 37.498469 0 0 1 25.212281-40.570016 36.730582 36.730582 0 0 1 38.77828 9.854546l595.752127 556.973847A35.962696 35.962696 0 0 1 959.867859 464.936542a36.090677 36.090677 0 0 1-37.114525 34.426922H684.06854L844.684849 844.400571c2.559622 4.991264 3.839434 10.622433 3.839434 16.253603a37.242507 37.242507 0 0 1-12.414169 26.108149 36.090677 36.090677 0 0 1-27.259979 8.958678H371.7946a35.834714 35.834714 0 0 1-32.635186-22.140734L67.199528 262.342424A45.433299 45.433299 0 0 1 64 245.960841c1.279811-20.604961 18.813225-36.218658 39.034242-35.194809l287.317621 0.767887z"  horiz-adv-x="1024" />
      
      <glyph glyph-name="Embed" unicode="&#59497;" d="M751.428311 895.997269l7.987179-0.477865c34.747641-3.618124 60.074506-28.330591 59.80144-56.865982l-0.546132-6.621849-136.532969-910.197039c-4.642121-31.197783-38.775363-53.247858-76.185397-49.356669-34.747641 3.618124-60.074506 28.330591-59.80144 56.865982l0.546132 6.621849 136.532969 910.19704c4.300789 28.944989 34.064976 50.1076 68.266484 49.834533zM392.551401 741.168882c21.094344-22.52794 22.732739-58.026512 4.846921-82.602446l-4.846921-5.939184L141.330738 383.998635l251.152397-268.628617c21.094344-22.52794 22.732739-58.026512 4.84692-82.602447l-4.84692-5.939184a55.773718 55.773718 0 0 0-77.209394-5.188253l-5.529586 5.188253L17.085736 339.761953a65.877158 65.877158 0 0 0-4.846921 82.602446l4.846921 5.870918 292.590153 312.933565a55.841984 55.841984 0 0 0 82.738979 0z m580.401653 0a55.841984 55.841984 0 0 0 82.738979 0l292.590153-312.933565 4.84692-5.870918c17.885819-24.575934 16.247423-60.074506-4.84692-82.602446l-292.590153-312.933566-5.461319-5.188253a55.773718 55.773718 0 0 0-77.27766 5.188253l-4.846921 5.939184a65.877158 65.877158 0 0 0 4.846921 82.602447L1224.037184 383.998635l-251.152397 268.628617-4.84692 5.939184a65.877158 65.877158 0 0 0 4.84692 82.602446z"  horiz-adv-x="1365" />
      
      <glyph glyph-name="Grid" unicode="&#59496;" d="M341.333333 327.111111a113.777778 113.777778 0 0 0 113.777778-113.777778v-227.555555a113.777778 113.777778 0 0 0-113.777778-113.777778H113.777778a113.777778 113.777778 0 0 0-113.777778 113.777778v227.555555a113.777778 113.777778 0 0 0 113.777778 113.777778h227.555555z m568.888889 0a113.777778 113.777778 0 0 0 113.777778-113.777778v-227.555555a113.777778 113.777778 0 0 0-113.777778-113.777778h-227.555555a113.777778 113.777778 0 0 0-113.777778 113.777778v227.555555a113.777778 113.777778 0 0 0 113.777778 113.777778h227.555555zM341.333333 213.333333H113.777778v-227.555555h227.555555v227.555555z m568.888889 0h-227.555555v-227.555555h227.555555v227.555555zM341.333333 896a113.777778 113.777778 0 0 0 113.777778-113.777778v-227.555555a113.777778 113.777778 0 0 0-113.777778-113.777778H113.777778a113.777778 113.777778 0 0 0-113.777778 113.777778V782.222222a113.777778 113.777778 0 0 0 113.777778 113.777778h227.555555z m568.888889 0a113.777778 113.777778 0 0 0 113.777778-113.777778v-227.555555a113.777778 113.777778 0 0 0-113.777778-113.777778h-227.555555a113.777778 113.777778 0 0 0-113.777778 113.777778V782.222222a113.777778 113.777778 0 0 0 113.777778 113.777778h227.555555zM341.333333 782.222222H113.777778v-227.555555h227.555555V782.222222z m568.888889 0h-227.555555v-227.555555h227.555555V782.222222z"  horiz-adv-x="1024" />
      
      <glyph glyph-name="erjizhankai" unicode="&#59493;" d="M721.92 31.061333c22.186667-22.698667 52.736-43.861333 81.578667-37.546666 28.842667-4.778667 56.149333 18.090667 78.506666 37.546666L1575.765333 738.986667a93.354667 93.354667 0 0 1 0 130.218666 89.941333 89.941333 0 0 1-128.170666 0L801.962667 195.413333 154.624 869.205333a89.941333 89.941333 0 0 1-128.170667 0 93.354667 93.354667 0 0 1 0-130.218666l695.296-707.925334z"  horiz-adv-x="1706" />
      
      <glyph glyph-name="erjishouqi" unicode="&#59494;" d="M979.114667 848.384C956.757333 871.253333 926.208 892.586667 897.706667 885.930667c-29.013333 4.778667-56.149333-17.92-78.506667-37.546667L125.269333 140.629333a93.354667 93.354667 0 0 1 0-130.218666c35.498667-35.84 92.672-35.84 128 0l645.802667 673.621333 647.338667-673.621333c35.328-35.84 92.672-35.84 128 0a93.354667 93.354667 0 0 1 0 130.218666L979.285333 848.213333z"  horiz-adv-x="1706" />
      
      <glyph glyph-name="bangzhu" unicode="&#59492;" d="M535.296 876.8c271.424 0 491.52-220.672 491.52-492.8 0-272.128-220.096-492.8-491.52-492.8S43.776 111.872 43.776 384c0 272.128 220.096 492.8 491.52 492.8z m0-73.152c-231.04 0-418.368-187.84-418.368-419.648 0-231.808 187.392-419.648 418.368-419.648 231.04 0 418.432 187.84 418.432 419.648 0 231.808-187.392 419.648-418.432 419.648z m0.256-588.736c14.72 0 27.2-4.16 37.056-13.952a46.72 46.72 0 0 0 14.72-35.776c0-14.72-5.632-26.624-15.36-36.416a52.224 52.224 0 0 0-36.352-13.952 50.112 50.112 0 0 0-51.008 50.56 46.72 46.72 0 0 0 14.72 35.712 49.024 49.024 0 0 0 36.224 13.824z m12.48 409.984c44.8 0 81.088-11.904 109.056-37.12 27.968-24.576 41.92-58.24 41.92-100.288 0-34.304-9.088-63.04-26.56-85.44-6.272-7.68-25.92-25.984-58.688-54.656-13.312-11.264-23.04-23.872-29.44-36.48-7.68-13.952-11.136-29.44-11.136-46.272v-11.84h-74.88v11.84c0 25.984 4.224 48.384 13.952 66.56 9.088 19.584 35.648 48.384 78.976 86.912l11.904 13.312c12.608 16.128 19.52 32.896 19.52 51.136 0 24.512-7.04 43.456-20.288 57.408-13.952 13.952-34.24 20.992-59.52 20.992-31.488 0-54.528-9.792-68.48-30.08-12.544-16.832-18.816-40.704-18.816-71.552H382.08c0 51.2 14.72 91.072 43.968 120.576 29.632 30.272 70.272 44.992 121.92 44.992z"  horiz-adv-x="1088" />
      
      <glyph glyph-name="zhankai" unicode="&#59491;" d="M830.085774-84.197502c25.371317-25.826408 59.844451-49.832452 92.610995-42.437225 32.652771-5.574863 63.485178 20.251544 88.970268 42.437225l786.169504 802.097684a105.808631 105.808631 0 0 1 0 147.676992 101.940358 101.940358 0 0 1-145.287765 0L920.876405 102.048442 187.269899 865.463402a101.940358 101.940358 0 0 1-145.287765 0 105.808631 105.808631 0 0 1 0-147.449447l788.10364-802.211457z"  horiz-adv-x="1934" />
      
      <glyph glyph-name="shouqi" unicode="&#59490;" d="M993.638924 852.225209C970.804889 878.028693 939.779271 901.989071 910.289575 894.616647c-29.387301 5.529318-57.136286-20.274166-80.072716-42.391438l-707.547915-802.263085a114.374967 114.374967 0 0 1 0-147.44848 85.397245 85.397245 0 0 1 130.758131 0l658.500817 763.353069 660.241527-763.455464a85.397245 85.397245 0 0 1 130.758132 0 114.374967 114.374967 0 0 1 0 147.550875L993.638924 852.225209z"  horiz-adv-x="1740" />
      
      <glyph glyph-name="shixingou" unicode="&#59489;" d="M1358.874625 771.875789L1244.987462 889.772462a20.21817 20.21817 0 0 1-29.175587 0L509.626158 158.591286 149.026131 531.731697a20.21817 20.21817 0 0 1-29.260896 0L5.963381 414.005642a22.009654 22.009654 0 0 1 0-30.284602l488.221896-505.539569c4.265437-4.350746 9.810505-6.142229 15.355572-5.886303a19.876935 19.876935 0 0 1 15.440882 5.971612l833.892894 863.324408a22.009654 22.009654 0 0 1 0 30.284601z"  horiz-adv-x="1368" />
      
      <glyph glyph-name="kongxingou" unicode="&#59488;" d="M1105.188571 842.898286L526.116571 243.273143 243.273143 536.064a53.906286 53.906286 0 0 1-77.677714 0L68.022857 434.980571a55.442286 55.442286 0 0 1 0-76.8l418.523429-433.371428a53.174857 53.174857 0 0 1 41.691428-16.091429 50.980571 50.980571 0 0 1 37.302857 16.091429l714.971429 740.205714a55.442286 55.442286 0 0 1 0 76.8L1182.939429 842.898286a53.906286 53.906286 0 0 1-77.677715 0z m38.838858-65.024l71.826285-74.386286-689.810285-714.313143-393.508572 407.478857 71.826286 74.386286 321.682286-333.092571 617.984 639.926857z"  horiz-adv-x="1316" />
      
      <glyph glyph-name="Desktop" unicode="&#59487;" d="M1186.913524 896a97.52381 97.52381 0 0 0 97.523809-97.52381v-585.142857a97.52381 97.52381 0 0 0-97.523809-97.523809H856.259048v-121.904762h47.640381a48.761905 48.761905 0 0 0 5.656381-97.182476l-5.656381-0.341334H380.586667a48.761905 48.761905 0 0 0-5.705143 97.182477l5.705143 0.341333h47.542857V115.809524H97.52381a97.52381 97.52381 0 0 0-97.52381 97.523809V798.47619a97.52381 97.52381 0 0 0 97.52381 97.52381h1089.389714z m-428.129524-780.190476H525.653333v-97.52381h233.081905v97.52381z m428.129524 682.666666H97.52381v-585.142857h1089.389714V798.47619z"  horiz-adv-x="1316" />
      
      <glyph glyph-name="Mobile" unicode="&#59486;" d="M791.272727 896a93.090909 93.090909 0 0 0 93.090909-93.090909v-837.818182a93.090909 93.090909 0 0 0-93.090909-93.090909H232.727273a93.090909 93.090909 0 0 0-93.090909 93.090909V802.909091a93.090909 93.090909 0 0 0 93.090909 93.090909h558.545454z m0-861.090909H232.727273V-34.909091h558.545454v69.818182zM791.272727 802.909091H232.727273v-674.909091h558.545454V802.909091z"  horiz-adv-x="1024" />
      
      <glyph glyph-name="zhongmingming" unicode="&#59485;" d="M1024 896a85.333333 85.333333 0 0 0 85.333333-85.333333v-853.333334a85.333333 85.333333 0 0 0-85.333333-85.333333H170.666667a85.333333 85.333333 0 0 0-85.333334 85.333333V810.666667a85.333333 85.333333 0 0 0 85.333334 85.333333h853.333333z m0-85.333333H170.666667v-853.333334h853.333333V810.666667zM554.666667 640a42.666667 42.666667 0 0 0 0-85.333333h-83.626667v-341.333334h83.626667a42.666667 42.666667 0 0 0 0-85.333333h-256a42.666667 42.666667 0 0 0 0 85.333333h87.04V554.666667H298.666667a42.666667 42.666667 0 0 0 0 85.333333h256zM725.333333 213.333333a42.666667 42.666667 0 1 0 0-85.333333 42.666667 42.666667 0 0 0 0 85.333333zM896 213.333333a42.666667 42.666667 0 1 0 0-85.333333 42.666667 42.666667 0 0 0 0 85.333333z"  horiz-adv-x="1109" />
      
      <glyph glyph-name="baocuo" unicode="&#59477;" d="M555.885714 881.371429c55.149714 0 105.559771-29.257143 131.4816-76.887772L1077.394286 112.786286a154.185143 154.185143 0 0 0 0-150.966857 150.206171 150.206171 0 0 0-129.8432-75.1616H165.770971c-53.774629 0-102.224457 27.8528-131.393828 75.132342-26.272914 46.08-26.272914 102.751086-0.087772 150.820572l389.792915 691.346286C450.325943 852.114286 500.736 881.371429 555.885714 881.371429z m0-87.771429c-23.376457 0-44.002743-11.995429-55.003428-32.212114L111.030857 70.0416c-11.4688-21.065143-11.4688-45.436343-1.2288-63.488 12.609829-20.421486 33.060571-32.1536 55.939657-32.1536h781.780115c21.884343 0 42.920229 12.0832 53.599085 30.837029a66.530743 66.530743 0 0 1-0.117028 64.248685L610.596571 761.973029C599.888457 781.604571 579.262171 793.6 555.885714 793.6z m-0.497371-641.287314c31.188114 0 56.495543-25.278171 56.495543-56.466286v-3.452343a56.495543 56.495543 0 1 0-112.991086 0v3.423086c0 31.188114 25.307429 56.495543 56.495543 56.495543z m0 490.788571c31.188114 0 56.495543-25.307429 56.495543-56.495543V259.949714a56.495543 56.495543 0 0 0-112.991086 0V586.605714c0 31.188114 25.307429 56.495543 56.495543 56.495543z"  horiz-adv-x="1111" />
      
      </font>
</defs>
</svg>
